img image001 image001 image001 image001 image001 image001 image001 image001 image001 image001 image001 image001 image001 image001 image001

Planets Sun Sun Sun
Статистика раздачи
Автор: Снежана | Размер: 54.54 МБ | Добавлен: 03 авг 2013
Раздают: 7    Качают: 3
Скачать торрент
Скачать торрент
Описание торрента

СообщениеДобавлено: 03 авг 2013 

#77

Информация о фильме
Название: Джим Керри - Пародия на фильм "Черный Лебедь"
Год выхода: 2011
Жанр: Скетч-шоу
В ролях: Джим Керри

О фильме:
Пародия на фильм "Черный Лебедь" (Black Swan, 2010) от известного американского шоу Saturday Night Live в исполнении неподражаемого Джима Керри.
Страна: США
Продолжительность: 05:11
Перевод: AVO (одноголосый любительский) Антон Прокофьев

Файл
Качество: HDTV
Видео кодек: Другой MPEG4

Видео:
Идентификатор : 2
Формат : AVC
Формат/Информация : Advanced Video Codec
Профиль формата : Baseline@L3.0
Параметр CABAC формата : Нет
Параметр ReFrames формата : 1 кадр
Идентификатор кодека : avc1
Идентификатор кодека/Информация : Advanced Video Coding
Продолжительность : 5 м. 11 с.
Вид битрейта : Переменный
Битрейт : 1338 Кбит/сек
Максимальный битрейт : 1500 Кбит/сек
Ширина : 640 пикс.
Высота : 480 пикс.
Соотношение сторон : 4:3
Режим частоты кадров : Постоянный
Частота кадров : 29,970 кадр/сек
Стандарт вещания : NTSC
Цветовое пространство : YUV
Подвыборка цветности : 4:2:0
Битовая глубина : 8 бит
Тип развёртки : Прогрессивная
Бит/(Пиксели*Кадры) : 0.145
Размер потока : 49,7 Мбайт (91%)
Язык : English
Дата кодирования : UTC 2011-03-16 18:20:58
Дата пометки : UTC 2011-03-16 18:20:58


Аудио:
Идентификатор : 1
Формат : AAC
Формат/Информация : Advanced Audio Codec
Профиль формата : LC
Идентификатор кодека : 40
Продолжительность : 5 м. 11 с.
Вид битрейта : Постоянный
Битрейт : 128 Кбит/сек
Канал(ы) : 2 канала(ов)
Расположение каналов : Front: L R
Частота : 48,0 КГц
Метод сжатия : С потерями
Размер потока : 4,76 Мбайт (9%)
Язык : English
Дата кодирования : UTC 2011-03-16 18:20:58
Дата пометки : UTC 2011-03-16 18:20:58




   Похожие торренты   Торрент   Размер 
В этой теме нет новых непрочитанных сообщений. Коллекция Джим Керри / Jim Carrey - Collection (1983-2009) DVDRip, TVRip, HDTVRip

2 | 15

44.57 ГБ

В этой теме нет новых непрочитанных сообщений. Джим Керри. Фильмография / Jim Carrey. Filmography (1994-2009) BDRip 720p от R.G. GoldenShara

30 | 65

39.37 ГБ

В этой теме нет новых непрочитанных сообщений. Подозрительная Сова / Suspicious owl (Георгий Молодцов) [24 августа 2016, чёрный юмор, пародия, детектив, комедия, HDTVRip]

15 | 6

7.6 ГБ

В этой теме нет новых непрочитанных сообщений. Чёрный лебедь / Black Swan (2010) DVD-9 | D

16 | 8

6.58 ГБ

В этой теме нет новых непрочитанных сообщений. Чёрный лебедь / Black Swan (2010) Blu-Ray CEE

2 | 2

40.79 ГБ

В этой теме нет новых непрочитанных сообщений. Чёрный лебедь / Black Swan (2010) BDRemux | A

0 | 2

29.63 ГБ

В этой теме нет новых непрочитанных сообщений. OST - Чёрный лебедь / Black Swan (2010) FLAC

25 | 3

239.33 МБ




Вы не можете начинать темы
Вы не можете отвечать на сообщения
Вы не можете редактировать свои сообщения
Вы не можете удалять свои сообщения
Вы не можете добавлять вложения

Перейти:  
Для Мосгорсуда, Роскомнадзора и рекламодателей: mosgorsud-torrent[собачка]yandex.ru
 Вход
ppkBB3cker v.2 © 2008-2014 @ PPK
[ Time : 0.034s | 17 Queries | GZIP : Off ]

cron