img image001 image001 image001 image001 image001 image001 image001 image001 image001 image001 image001 image001 image001 image001 image001

Planets Sun Sun Sun
Статистика раздачи
Автор: Снежана | Размер: 2.75 ГБ | Добавлен: 03 авг 2013
Раздают: 0    Качают: 20
Скачать торрент
Скачать торрент
Описание торрента

СообщениеДобавлено: 03 авг 2013 

#77

Год выпуска: 2001
Страна: Россия
Жанр: Цирк, клоунада
Продолжительность: 52 мин
Режиссёр Татьяна Гутман.

Описание:

"На арене только клоуны" - это цирковой спектакль, в который вошли лучшие работы современных клоунов. Представленные репризы разнообразны, как по жанрам, так и по содержанию - от сольно-лирических до веселых и эксцентричных.
1. "Веселая скакалка" - руководитель номера Виталий Малько
2. "Кошка и собаки" - дрессировщица Асият Шюнхайт
3. Реприза "Тазики" - дуэт "Блюз" - Лауреат международных конкурсов в Париже - Константин Устьянцев и Тимур Кайбжанов
4. Реприза "Шампанское" - клоуны Алексей Емелин и Сергей Загорский Лауреаты международного конкурса "Цирк завтрашнего дня" в Париже
5. Реприза "Перчатки" - театр "Микос" - призеры международного фестиваля "Цирк завтрашнего дня" в Париже
6. Реприза "Картина" - дуэт "Долли и Домино" - клоуны - Заслуженные артисты России Лада и Александр Сарнацкие
7. "Робот" - оригинальный жонглер Сергей Гульченко
8. "Комические спасатели" - руководитель номера Заслуженный артист России Игорь Майоров
9. Реприза "Лодки" - театр "Микос" - призеры международного фестиваля "Цирк завтрашнего дня" в Париже
10. Реприза "Бабочка" - клоун Артак Арутян
11. Реприза "Кино" - Андрей Деменьтьев-Корнилов Обладатель специального приза международного конкурса в Вероне
12. "Кан-кан сюита" - Лауреат Всероссийского конкурса артистов цирка Павел Иванов и Наталья Гончарова
13. Реприза "Лошадки" - Лауреаты международных конкурсов клоуны Тамара и Борис Оскотские
14. Реприза "Лыжи" - клоуны Алексей Емелин и Сергей Загорский Лауреаты международного конкурса "Цирк завтрашнего дня" в Париже.

Качество: DVD5
Видео: 4:3 (720x576@768x576) VBR
Аудио: Russian (Dolby AC3, 2 ch), Русский Dolby Digital 5.1 Russian (Dolby AC3, 6 ch)

Общее
Полное имя : //Na arene tolko klounyVIDEO_TSVTS_02_1.VOB
Формат : MPEG-PS
Размер файла : 1024 Мбайт
Продолжительность : 21 м.
Общий поток : 6806 Кбит/сек

Видео
Идентификатор : 224 (0xE0)
Формат : MPEG Video
Версия формата : Version 2
Профиль формата : Main@Main
Параметр BVOP формата : Да
Параметр матрицы формата : По умолчанию
Продолжительность : 21 м.
Вид битрейта : Переменный
Битрейт : 6222 Кбит/сек
Номинальный битрейт : 9000 Кбит/сек
Ширина : 720 пикс.
Высота : 576 пикс.
Соотношение сторон : 4:3
Частота кадров : 25,000 кадр/сек
Стандарт вещания : PAL
Цветовое пространство : YUV
Подвыборка цветности : 4:2:0
Битовая глубина : 8 бит
Тип развёртки : Чересстрочная
Порядок развёртки : Нижнее поле первое
Метод сжатия : С потерями
Бит/(Пиксели*Кадры) : 0.600
Размер потока : 936 Мбайт (91%)

Аудио #1
Идентификатор : 189 (0xBD)-128 (0x80)
Формат : AC-3
Формат/Информация : Audio Coding 3
Расширение режима : CM (complete main)
Режим смешивания : DVD-Video
Продолжительность : 21 м.
Вид битрейта : Постоянный
Битрейт : 224 Кбит/сек
Каналы : 2 канала
Расположение каналов : Front: L R
Частота : 48,0 КГц
Битовая глубина : 16 бит
Метод сжатия : С потерями
Размер потока : 33,7 Мбайт (3%)

Аудио #2
Идентификатор : 189 (0xBD)-129 (0x81)
Формат : AC-3
Формат/Информация : Audio Coding 3
Расширение режима : CM (complete main)
Режим смешивания : DVD-Video
Продолжительность : 21 м.
Вид битрейта : Постоянный
Битрейт : 224 Кбит/сек
Каналы : 6 каналов
Расположение каналов : Front: L C R, Side: L R, LFE
Частота : 48,0 КГц
Битовая глубина : 16 бит
Метод сжатия : С потерями
Размер потока : 33,7 Мбайт (3%)

Меню





   Похожие торренты   Торрент   Размер 
В этой теме нет новых непрочитанных сообщений. Цирк нашим детям: На арене только клоуны (2001) DVDRip от ExKinoRay

10 | 3

897.11 МБ

В этой теме нет новых непрочитанных сообщений. Цирк! Цирк! Цирк! / Orla Frosnapper (2011) DVD5

0 | 2

3.91 ГБ

В этой теме нет новых непрочитанных сообщений. Цирк! Цирк! Цирк! / Orla Frosnapper (2011) BDRip 1080p | 3D-Video

3 | 2

3.94 ГБ

В этой теме нет новых непрочитанных сообщений. Цирк! Цирк! Цирк! / Orla Frosnapper (2011) BDRip 720p от DHT-Movies

3 | 6

2.9 ГБ

В этой теме нет новых непрочитанных сообщений. Цирк! Цирк! Цирк! / Orla Frosnapper (2011) BDRip | Лицензия

8 | 2

1.37 ГБ

В этой теме нет новых непрочитанных сообщений. Цирк! Цирк! Цирк! / Orla Frosnapper (2011) HDRip | Лицензия

3 | 3

697.5 МБ

В этой теме нет новых непрочитанных сообщений. Цирк! Цирк! Цирк! / Orla Frosnapper (2011) DVDRip | Лицензия

9 | 3

1.46 ГБ




Вы не можете начинать темы
Вы не можете отвечать на сообщения
Вы не можете редактировать свои сообщения
Вы не можете удалять свои сообщения
Вы не можете добавлять вложения

Перейти:  
Для Мосгорсуда, Роскомнадзора и рекламодателей: mosgorsud-torrent[собачка]yandex.ru
 Вход
ppkBB3cker v.2 © 2008-2014 @ PPK
[ Time : 0.031s | 17 Queries | GZIP : Off ]

Торрент трекер RUTOR.IN, Не можете зайти на rutor.org? Какой новый адрес рутор? Какое зеркало рутор? Не работает rutor.org и зеркала? Тогда наш торрент специально для вас. Rutor.in неофициальное зеркало rutor. В случае если у Вас заблокирован rutor или вдруг Вы не можете на него зайти, то Вы без труда сможете скачать бесплатно и без рекламы последние новинки кино, игр, сериалов и прочего у нас, на Rutor.in. Не нужно использовать прокси, чтобы зайти на рутор, достаточно воспользоваться нашим ресурсом. Все новые фильмы, игры, сериалы, книги и музыка за 2013 и 2014 годы через торрент бесплатно. Скачивайте фильмы в хорошем качестве, игры для пк, xbox, playstation без регистрации. У нас вы найдете новые Зарубежные сериалы и Русские сериалы 2013, 2014, 2015 годов. Оставайтесь с нами, качайте любимые фильмы, игры, сериалы, книги и музыку.
cron