img image001 image001 image001 image001 image001 image001 image001 image001 image001 image001 image001 image001 image001 image001 image001

Planets Sun Sun Sun
Статистика раздачи
Автор: Снежана | Размер: 2.56 ГБ | Добавлен: 03 авг 2013
Раздают: 30    Качают: 4
Скачать торрент
Скачать торрент
Описание торрента

СообщениеДобавлено: 03 авг 2013 

#77

Информация о фильме
Название: Маски-шоу. Ночная симфония
Год выхода: 2009
Жанр: Спектакль. Сюрреалистическая комедия
Режиссер: Георгий Делиев
В ролях: Георгий Делиев, Борис Барский, Наталья Бузько, Наталья Гилева, Олег Савченко

О фильме:
«Ночная симфония» режиссера Георгия Делиева - пьеса особенная. На сегодняшний день она является практически невыездной – за пять лет существования её демонстрировали вне стен одесского театра «Дом клоунов» лишь дважды. На крымском фестивале Боспорские агоны и на киевском Гоголь Fest, где она сорвала овации. При этом, постановка постоянно пополняется новыми эпизодами и толкованиями из личностного опыта создателей.
Спектакль начинается и оканчивается не на сцене, а в зале. Этим зритель втягивается в игру, становясь соучастником происходящего. Актеры, с эксклюзивной легкостью комиков, преподносят публике карикатуры над обществом, дружбой, частной собственностью, терроризмом, любовью, сферами зримыми и незримыми. Георгий Делиев предстает в униформе ангела, сосланного на землю за неведомо (но очевидно) что. Борис Барский – божественная растерянность, он человек мира, приходящий с миром и готовый с миром похоронить всех, кто не доживет до конца представления

Страна: Украина
Студия: ООО "Инженер - Сервис"
Продолжительность: 01:04:52 + 00:44:52
Язык: Русский

Файл
Кодек: XviD
Качество: DVDRip
Видео:
#1 720x432, 3296 kbps, 25 fps;
#2 720x416, 2917 kbps, 25 fps
Звук: AC3, 2 ch, 192 kbps, 48.0 khz

1.C:Nochnaya.simfoniya-1.2009.XviD.DVDRip.avi
General
Complete name : C:Nochnaya.simfoniya-1.2009.XviD.DVDRip.avi
Format : AVI
Format/Info : Audio Video Interleave
File size : 1.58 GiB
Duration : 1h 4mn 52s
Overall bit rate : 3 494 Kbps
Writing application : VirtualDubMod 1.5.4.1 (build 2178/release)
Writing library : VirtualDubMod build 2178/release
Video #0
ID : 0
Format : MPEG-4 Visual
Format profile : Advanced Simple@L5
Format settings, BVOP : No
Format settings, QPel : No
Format settings, GMC : No warppoints
Format settings, Matrix : Custom
Codec ID : XVID
Codec ID/Hint : XviD
Duration : 1h 4mn 52s
Bit rate : 3 296 Kbps
Width : 720 pixels
Height : 432 pixels
Display aspect ratio : 1.667
Frame rate : 25.000 fps
Color space : YUV
Chroma subsampling : 4:2:0
Bit depth : 8 bits
Scan type : Progressive
Compression mode : Lossy
Bits/(Pixel*Frame) : 0.424
Stream size : 1.49 GiB (94%)
Writing library : XviD 63
Audio #1
ID : 1
Format : AC-3
Format/Info : Audio Coding 3
Mode extension : CM (complete main)
Format settings, Endianness : Big
Codec ID : 2000
Duration : 1h 4mn 52s
Bit rate mode : Constant
Bit rate : 192 Kbps
Channel(s) : 2 channels
Channel positions : Front: L R
Sampling rate : 48.0 KHz
Bit depth : 16 bits
Compression mode : Lossy
Stream size : 89.1 MiB (5%)
Alignment : Split accross interleaves
Interleave, duration : 96 ms (2.40 video frames)
Interleave, preload duration : 96 ms
2.C:Nochnaya.simfoniya-2.2009.XviD.DVDRip.avi
General
Complete name : C:Nochnaya.simfoniya-2.2009.XviD.DVDRip.avi
Format : AVI
Format/Info : Audio Video Interleave
File size : 1 000 MiB
Duration : 44mn 52s
Overall bit rate : 3 116 Kbps
Writing application : VirtualDubMod 1.5.4.1 (build 2178/release)
Writing library : VirtualDubMod build 2178/release
Video #0
ID : 0
Format : MPEG-4 Visual
Format profile : Advanced Simple@L5
Format settings, BVOP : No
Format settings, QPel : No
Format settings, GMC : No warppoints
Format settings, Matrix : Custom
Codec ID : XVID
Codec ID/Hint : XviD
Duration : 44mn 52s
Bit rate : 2 917 Kbps
Width : 720 pixels
Height : 416 pixels
Display aspect ratio : 1.731
Frame rate : 25.000 fps
Color space : YUV
Chroma subsampling : 4:2:0
Bit depth : 8 bits
Scan type : Progressive
Compression mode : Lossy
Bits/(Pixel*Frame) : 0.390
Stream size : 936 MiB (94%)
Writing library : XviD 63
Audio #1
ID : 1
Format : AC-3
Format/Info : Audio Coding 3
Mode extension : CM (complete main)
Format settings, Endianness : Big
Codec ID : 2000
Duration : 44mn 52s
Bit rate mode : Constant
Bit rate : 192 Kbps
Channel(s) : 2 channels
Channel positions : Front: L R
Sampling rate : 48.0 KHz
Bit depth : 16 bits
Compression mode : Lossy
Stream size : 61.6 MiB (6%)
Alignment : Split accross interleaves
Interleave, duration : 96 ms (2.40 video frames)
Interleave, preload duration : 96 ms

Семпл

, , , ,


Релиз от:



   Похожие торренты   Торрент   Размер 
В этой теме нет новых непрочитанных сообщений. Маленькая ночная симфония (2003) DVDRip

5 | 2

72.69 МБ

В этой теме нет новых непрочитанных сообщений. Маски-шоу. Том 1. Маски-спорт. Маски в армии. (2002) DVD5

19 | 67

4.38 ГБ

В этой теме нет новых непрочитанных сообщений. Время маски 2:13 / 2:13 (2009) DVDRip

4 | 32

1.36 ГБ

В этой теме нет новых непрочитанных сообщений. Ночная женщина / Ночная леди / Lady of the Night / La signora della notte (1986) DVDRip-AVC от ExKinoRay

195 | 44

1.75 ГБ

В этой теме нет новых непрочитанных сообщений. Александр Кутиков - Без маски (2009) DVDRip от Big111

1 | 2

1.37 ГБ

В этой теме нет новых непрочитанных сообщений. Маски-шоу. Маски на выборах (2006) DVD9

18 | 30

7.25 ГБ

В этой теме нет новых непрочитанных сообщений. Маски / Masques (2009) HDTVRip 720p

0 | 1

105.2 МБ




Вы не можете начинать темы
Вы не можете отвечать на сообщения
Вы не можете редактировать свои сообщения
Вы не можете удалять свои сообщения
Вы не можете добавлять вложения

Перейти:  
Для Мосгорсуда, Роскомнадзора и рекламодателей: mosgorsud-torrent[собачка]yandex.ru
 Вход
ppkBB3cker v.2 © 2008-2014 @ PPK
[ Time : 0.030s | 14 Queries | GZIP : Off ]

Торрент трекер RUTOR.IN, Не можете зайти на rutor.org? Какой новый адрес рутор? Какое зеркало рутор? Не работает rutor.org и зеркала? Тогда наш торрент специально для вас. Rutor.in неофициальное зеркало rutor. В случае если у Вас заблокирован rutor или вдруг Вы не можете на него зайти, то Вы без труда сможете скачать бесплатно и без рекламы последние новинки кино, игр, сериалов и прочего у нас, на Rutor.in. Не нужно использовать прокси, чтобы зайти на рутор, достаточно воспользоваться нашим ресурсом. Все новые фильмы, игры, сериалы, книги и музыка за 2013 и 2014 годы через торрент бесплатно. Скачивайте фильмы в хорошем качестве, игры для пк, xbox, playstation без регистрации. У нас вы найдете новые Зарубежные сериалы и Русские сериалы 2013, 2014, 2015 годов. Оставайтесь с нами, качайте любимые фильмы, игры, сериалы, книги и музыку.