img image001 image001 image001 image001 image001 image001 image001 image001 image001 image001 image001 image001 image001 image001 image001 image001

Planets Sun Sun Sun
Статистика раздачи
Автор: Снежана | Размер: 1.08 ГБ | Добавлен: 03 авг 2013
Раздают: 194    Качают: 20
Скачать торрент
Скачать торрент
Описание торрента

СообщениеДобавлено: 03 авг 2013 

#77

Информация о фильме
Исполнитель: Михаил Евдокимов
Оригинальное название: Деревенские истории
Год выхода: 2005
Жанр: сатира, юмор, концерт

О фильме: Юмористические выступления и песни в исполнении Михаила Евдокимова с уклоном на деревенскую тематику..."Хрен", "За Утками", "Балагур", "Дискриминация" и др...

Страна: Россия
Продолжительность: 01:24:33
Язык: Русский

Файл
Кодек: XviD
Качество: DVDRip
Видео: 640x400, 25 fps, ~1620 kbps avg, 0.253 bit/pixel
Звук: 48 kHz, МP2, 2 ch, ~192 kbps
Размер: 1.08 gb

Общее
Полное имя : Mihail.Evdokimov-Derevenskie.istorii.2005.XviD.DVDRip-Kinozal.TB.avi
Формат : AVI
Формат/Информация : Audio Video Interleave
Размер файла : 1,08 Гбайт
Продолжительность : 1 ч. 24 м.
Общий поток : 1822 Кбит/сек
Программа кодирования : VirtualDubMod 1.5.10.2 (build 2540/release)
Библиотека кодирования : VirtualDubMod build 2540/release

Видео
Идентификатор : 0
Формат : MPEG-4 Visual
Профиль формата : Advanced Simple@L5
Параметр BVOP формата : 1
Параметр QPel формата : Нет
Параметр GMC формата : Без точки перехода
Параметр матрицы формата : Default (MPEG)
Идентификатор кодека : XVID
Идентификатор кодека/Подсказка : XviD
Продолжительность : 1 ч. 24 м.
Битрейт : 1620 Кбит/сек
Ширина : 640 пикселей
Высота : 400 пикселей
Соотношение сторон : 1,600
Частота кадров : 25,000 кадров/сек
Цветовое пространство : YUV
Субдискретизация насыщенности : 4:2:0
Битовая глубина : 8 бит
Тип развёртки : Прогрессивная
Метод сжатия : С потерями
Бит/(Пиксели*Кадры) : 0.253
Размер потока : 980 Мбайт (89%)
Библиотека кодирования : XviD 1.2.1 (UTC 2008-12-04)

Аудио
Идентификатор : 1
Формат : MPEG Audio
Версия формата : Version 1
Профиль формата : Layer 2
Идентификатор кодека : 50
Продолжительность : 1 ч. 24 м.
Вид битрейта : Постоянный
Битрейт : 192 Кбит/сек
Каналы : 2 канала
Частота : 48,0 КГц
Метод сжатия : С потерями
Размер потока : 116 Мбайт (11%)
Выравнивание : Соединение по промежуткам
Продолжительность промежутка : 40 мс. (1,00 видеокадр)
Время предзагрузки промежутка : 504 мс.







   Похожие торренты   Торрент   Размер 
В этой теме нет новых непрочитанных сообщений. Михаил Евдокимов в кино (1993-1998) DVDRip от Русфильм

3 | 11

4.19 ГБ

В этой теме нет новых непрочитанных сообщений. Михаил Евдокимов - Миниатюры (2000) MP3

622 | 15

68.13 МБ

В этой теме нет новых непрочитанных сообщений. Михаил Евдокимов - Звёздная коллекция (2001) MP3

5 | 0

163.67 МБ

В этой теме нет новых непрочитанных сообщений. Михаил Евдокимов - Избранное (2006) SATRip

523 | 18

350.13 МБ

В этой теме нет новых непрочитанных сообщений. Михаил Евдокимов - Смех, да и только... (2003) SATRip

12 | 6

1.18 ГБ

В этой теме нет новых непрочитанных сообщений. Михаил Евдокимов - Концертный сборник (2007) TVRip

178 | 33

2.67 ГБ

В этой теме нет новых непрочитанных сообщений. Моя исповедь. Михаил Евдокимов (2012) IPTVRip от ExKinoRay

0 | 126

463.3 МБ




Вы не можете начинать темы
Вы не можете отвечать на сообщения
Вы не можете редактировать свои сообщения
Вы не можете удалять свои сообщения
Вы не можете добавлять вложения

Перейти:  
 Вход
ppkBB3cker v.2 © 2008-2014 @ PPK
[ Time : 0.020s | 15 Queries | GZIP : Off ]

cron