img image001 image001 image001 image001 image001 image001 image001 image001 image001 image001 image001 image001 image001 image001 image001

Planets Sun Sun Sun
Статистика раздачи
Автор: Снежана | Размер: 1.3 ГБ | Добавлен: 03 авг 2013
Раздают: 3    Качают: 2
Скачать торрент
Скачать торрент
Описание торрента

СообщениеДобавлено: 03 авг 2013 

#77


Информация о фильме
Название: Comedy Woman
Год выхода: 2013
Жанр: Юмористическое шоу
Режиссер: Дмитрий Хрусталёв
В ролях: Дмитрий Хрусталев, Наталья Еприкян, Екатерина Скулкина, Екатерина Варнава, Мария Кравченко, Полина Сибагатуллина, Екатерина Баранова, Татьяна Морозова, Елена Борщёва, Наталия Медведева, Надежда Сысоева, Надежда Ангарская

О фильме:
Пока мужчины меняют зимнюю резину в автосервисах, девушки из ComedyWoman меняют формат шоу. В новом сезоне комеди-дамы покажут все, на что они способны и остановить их не сможет никто... Даже ОН! Ведь в рамках предвыборной кампании хорошего жениха в гости ComedyWoman заглянет Второй Человек в нашей стране! Теперь в Comedy Woman всех ожидает все на 100% женское, ведь не считая Дмитрия Хрусталева на сцене и в зале будут только дамы. Впрочем, будут и исключения. Фишкой нового сезона станут новые костюмы, специально разработанные для девчонок одним модным дизайнером. Теперь в нарядах будет больше секса, а на сцене больше женских ног, которые ранее тщательно скрывались за длинными юбками. Кроме этого зрители увидят и новые декорации в стиле «Алиса в стране чудес»

Страна: Россия
Студия: ТНТ
Продолжительность:~00:45:00
Перевод: Не требуется
Файл
Качество: DVB
Видео: MPEG2, 3733 Кбит/, 768 x 576
Аудио: MP3, 2 ch, 192 Кбит/с



Формат : MPEG-PS
Размер файла : 1,30 Гбайт
Продолжительность : 46 м.
Режим общего битрейта : Переменный
Общий поток : 4005 Кбит/сек
Библиотека кодирования : (c) 1998-2010 Womble Multimedia, Inc. / MPEG Video Wizard DVD 5.0.0.114 (01/2010) / Apr 20 2010

Видео
Идентификатор : 224 (0xE0)
Формат : MPEG Video
Версия формата : Version 2
Профиль формата : Main@Main
Параметр BVOP формата : Да
Параметр матрицы формата : Выборочная
Продолжительность : 46 м.
Вид битрейта : Переменный
Битрейт : 3733 Кбит/сек
Максимальный битрейт : 8000 Кбит/сек
Ширина : 720 пикселей
Высота : 576 пикселей
Соотношение сторон : 4:3
Частота кадров : 25,000 кадров/сек
Стандарт вещания : PAL
Цветовое пространство : YUV
Субдискретизация насыщенности : 4:2:0
Битовая глубина : 8 бит
Тип развёртки : Прогрессивная
Порядок развёртки : Верхнее поле первое
Метод сжатия : С потерями
Бит/(Пиксели*Кадры) : 0.360
Размер потока : 1,21 Гбайт (93%)
Библиотека кодирования : (c) 1998-2010 Womble Multimedia, Inc. / MPEG Video Wizard DVD 5.0.0.114 (01/2010) / Apr 20 2010

Аудио
Идентификатор : 192 (0xC0)
Формат : MPEG Audio
Версия формата : Version 1
Профиль формата : Layer 2
Продолжительность : 46 м.
Вид битрейта : Постоянный
Битрейт : 192 Кбит/сек
Каналы : 2 канала
Частота : 48,0 КГц
Метод сжатия : С потерями
Размер потока : 63,8 Мбайт (5%)



   Похожие торренты   Торрент   Размер 
В этой теме нет новых непрочитанных сообщений. Comedy Woman [Эфир 15.11] (2013) SATRip

168 | 6

535.3 МБ

В этой теме нет новых непрочитанных сообщений. Comedy Woman [Эфир 08.11] (2013) WEB-DL от Unitracker

4 | 4

651.02 МБ

В этой теме нет новых непрочитанных сообщений. Comedy Woman [Эфир 01.11] (2013) WEB-DLRip

4 | 3

542.95 МБ

В этой теме нет новых непрочитанных сообщений. Comedy Woman [эфир от 07.04] (2013) SATRip

14 | 4

558.11 МБ

В этой теме нет новых непрочитанных сообщений. Comedy Woman [Эфир 28.06] (2013) SATRip

10 | 4

482.52 МБ

В этой теме нет новых непрочитанных сообщений. Comedy Woman [Эфир 29.11] (2013) WEB-DL от Unitracker

15 | 3

663.16 МБ

В этой теме нет новых непрочитанных сообщений. Comedy Woman [Эфир 25.10] (2013) SATRip

14 | 2

525.89 МБ




Вы не можете начинать темы
Вы не можете отвечать на сообщения
Вы не можете редактировать свои сообщения
Вы не можете удалять свои сообщения
Вы не можете добавлять вложения

Перейти:  
Для Мосгорсуда, Роскомнадзора и рекламодателей: mosgorsud-torrent[собачка]yandex.ru
 Вход
ppkBB3cker v.2 © 2008-2014 @ PPK
[ Time : 0.021s | 14 Queries | GZIP : On ]

Торрент трекер RUTOR.IN, Не можете зайти на rutor.org? Какой новый адрес рутор? Какое зеркало рутор? Не работает rutor.org и зеркала? Тогда наш торрент специально для вас. Rutor.in неофициальное зеркало rutor. В случае если у Вас заблокирован rutor или вдруг Вы не можете на него зайти, то Вы без труда сможете скачать бесплатно и без рекламы последние новинки кино, игр, сериалов и прочего у нас, на Rutor.in. Не нужно использовать прокси, чтобы зайти на рутор, достаточно воспользоваться нашим ресурсом. Все новые фильмы, игры, сериалы, книги и музыка за 2013 и 2014 годы через торрент бесплатно. Скачивайте фильмы в хорошем качестве, игры для пк, xbox, playstation без регистрации. У нас вы найдете новые Зарубежные сериалы и Русские сериалы 2013, 2014, 2015 годов. Оставайтесь с нами, качайте любимые фильмы, игры, сериалы, книги и музыку.