img image001 image001 image001 image001 image001 image001 image001 image001 image001 image001 image001 image001 image001 image001 image001

Planets Sun Sun Sun
Статистика раздачи
Автор: Снежана | Размер: 26.67 ГБ | Добавлен: 18 дек 2013
Раздают: 8    Качают: 10
Скачать торрент
Скачать торрент
Описание торрента

СообщениеДобавлено: 18 дек 2013 

#77

Информация о фильме
Название: 6 Кадров
Год выхода: 2006
Жанр: Комедия
Режиссер: Александр Жигалкин
В ролях: Александр Ломакин, Федор Добронравов, Эдуард Радзюкевич, Сергей Дорогов, Андрей Кайков, Галина Данилова, Ирина Медведева, Александр Жигалкин, Михаил Казаков, Дмитрий Аросьев

О фильме:
6 кадров» - первое российское телевизионное скетч-шоу, состоящее из коротких юмористических зарисовок с малым количеством персонажей, обыгрывающих ситуации из повседневной жизни. Каждый выпуск включает в себя множество коротких комедийных сюжетов, ситуации и герои которых никогда не повторяются.
Действие скетчей происходит в обыденных местах, где может оказаться каждый из нас: рестораны и кинотеатры, транспорт и городские квартиры, офисы и магазины, и т.д. и т.п. Темы для зарисовок поражают своим разнообразием: здесь и любовь, и секс, и взаимоотношения в семье, и неожиданные встречи. Юмор здесь всегда построен на непредсказуемости ситуации и поведения героев.
Героями миниатюр становятся обычные люди: мужья и жены, любовники и коллеги, родственники, чиновники и многие другие. Но, несмотря на обилие образов, главными действующими лицами остаются шесть основных актеров, своим количеством давшие название передаче.

Страна: Россия
Продолжительность: 25 мин серия
Перевод: Оригинал

Кодек: MPEG4
Качество: WEB-DL
Видео: 704x396 25fps 1031kbps
Звук: AAC 44100Hz stereo 127kbps

Скачать Семпл http://sendfile.su/869519
Скачать все скинлисты для каждой серии + Тех Данные http://f-bit.ru/232536

Format : MPEG-4
Format profile : Base Media
Codec ID : isom
File size : 195 MiB
Duration : 23mn 28s
Overall bit rate mode : Variable
Overall bit rate : 1 164 Kbps
Writing application : Lavf52.31.0

Video
ID : 1
Format : AVC
Format/Info : Advanced Video Codec
Format profile : Main@L3.0
Format settings, CABAC : Yes
Format settings, ReFrames : 3 frames
Codec ID : avc1
Codec ID/Info : Advanced Video Coding
Duration : 23mn 28s
Bit rate : 1 032 Kbps
Width : 704 pixels
Height : 396 pixels
Display aspect ratio : 16:9
Frame rate mode : Constant
Frame rate : 25.000 fps
Color space : YUV
Chroma subsampling : 4:2:0
Bit depth : 8 bits
Scan type : Progressive
Bits/(Pixel*Frame) : 0.148
Stream size : 173 MiB (89%)
Language : Russian
Tagged date : UTC 2011-10-27 16:46:58

Audio
ID : 2
Format : AAC
Format/Info : Advanced Audio Codec
Format profile : LC
Codec ID : 40
Duration : 23mn 27s
Bit rate mode : Variable
Bit rate : 128 Kbps
Channel(s) : 2 channels
Channel positions : Front: L R
Sampling rate : 44.1 KHz
Compression mode : Lossy
Delay relative to video : 80ms
Stream size : 21.5 MiB (11%)
Language : Russian


















   Похожие торренты   Торрент   Размер 
В этой теме нет новых непрочитанных сообщений. 6 кадров [S01-05] (2006-2011) DVDRip, IPTVRip, SATRip

11 | 6

36.02 ГБ

В этой теме нет новых непрочитанных сообщений. Женская Лига [ I и II сезон, 22 выпуска ] (2006-2007) TVRip

45 | 4

4.21 ГБ

В этой теме нет новых непрочитанных сообщений. Я, электрик - Сборник электронного журнала [22 выпуска + приложения] (2006) PDF

210 | 22

48.53 МБ

В этой теме нет новых непрочитанных сообщений. 6 кадров [286-297] (2014) WEBRip

22 | 3

2.75 ГБ

В этой теме нет новых непрочитанных сообщений. 6 кадров [286-296] (2014) WEBRip

15 | 5

2.51 ГБ

В этой теме нет новых непрочитанных сообщений. 6 кадров [286-298] (2014) WEBRip

10 | 2

2.97 ГБ

В этой теме нет новых непрочитанных сообщений. 6 кадров [286-299] (2014) WEBRip

14 | 3

3.21 ГБ




Вы не можете начинать темы
Вы не можете отвечать на сообщения
Вы не можете редактировать свои сообщения
Вы не можете удалять свои сообщения
Вы не можете добавлять вложения

Перейти:  
Для Мосгорсуда, Роскомнадзора и рекламодателей: mosgorsud-torrent[собачка]yandex.ru
 Вход
ppkBB3cker v.2 © 2008-2014 @ PPK
[ Time : 0.078s | 14 Queries | GZIP : Off ]

Торрент трекер RUTOR.IN, Не можете зайти на rutor.org? Какой новый адрес рутор? Какое зеркало рутор? Не работает rutor.org и зеркала? Тогда наш торрент специально для вас. Rutor.in неофициальное зеркало rutor. В случае если у Вас заблокирован rutor или вдруг Вы не можете на него зайти, то Вы без труда сможете скачать бесплатно и без рекламы последние новинки кино, игр, сериалов и прочего у нас, на Rutor.in. Не нужно использовать прокси, чтобы зайти на рутор, достаточно воспользоваться нашим ресурсом. Все новые фильмы, игры, сериалы, книги и музыка за 2013 и 2014 годы через торрент бесплатно. Скачивайте фильмы в хорошем качестве, игры для пк, xbox, playstation без регистрации. У нас вы найдете новые Зарубежные сериалы и Русские сериалы 2013, 2014, 2015 годов. Оставайтесь с нами, качайте любимые фильмы, игры, сериалы, книги и музыку.