img image001 image001 image001 image001 image001 image001 image001 image001 image001 image001 image001 image001 image001 image001 image001

Planets Sun Sun Sun
Статистика раздачи
Автор: Снежана | Размер: 31.07 ГБ | Добавлен: 18 дек 2013
Раздают: 8    Качают: 8
Скачать торрент
Скачать торрент
Описание торрента

СообщениеДобавлено: 18 дек 2013 

#77

Информация о фильме
Название: Шоу "Уральских пельменей"
Год выхода: 2009-13
Жанр: Комедия
Режиссер: Константин Куц, Леонид Коновалов, Анастасия Гуделова
В ролях: Сергей Ершов, Андрей Рожков, Сергей Нетиевский, Дмитрий Соколов, Вячеслав Мясников, Сергей Исаев, Юлия Михалкова-Матюхина, Дмитрий Брекоткин, Александр Попов, Максим Ярица

О фильме:
Прошедшей долгий путь от основания в 1993 году, дебюта в Высшей лиге «Клуба Веселых и Находчивых» в 1995, чемпионства в ней же в 2000 и до старта собственных юмористических спектаклей на телевидении в 2009 году. Сергей Нетиевский, Андрей Рожков, Дмитрий Соколов, Дмитрий Брекоткин, Вячеслав Мясников, Сергей Исаев – эти имена давно и прочно ассоциируются с добротным, не пошлым и не злым, но неизменно актуальным, пробивающим до слез юмором. Зритель начинает получать положительный заряд эмоций уже от игры слов в названиях их тематических телевизионных выступлений: «Вялые паруса», «Борода измята», «Снега и зрелищ», «Падал прошлогодний смех», «Назад в булочную», «Гори оно все… конем!» и многие другие творения, с лету уходящие «в народ».

Официальный сайт

Страна: Россия
Продолжительность: ~ 60 мин выпуск

Файл
Кодек: WebM
Качество: WEB-DL (360, 480, 720)
Видео: ~ VP80 1280x720 30fps
Звук: ~Vorbis 44100Hz stereoв

Семпл

Разрешение видео у каждого файла может быть разным. Качество выбиралось наилучшее из возможного.

Агенты 07 ﴾полная версия﴿
Борода измята, ч.1, 2011
Борода измята, ч.2, 2011
В гостях у скалки, 2010
Весь апрель никому, 2010
Вялые паруса + 1 вырезанная сцена
Вялые паруса, ч.1, 2012
Вялые паруса, ч.2, 2012
Год в сапогах, 2012
Гори оно все конем, 2009
День смешного Валентина, 2011
Женское ‐ Щас я! ﴾полная версия, ч.1﴿
Женское ‐ Щас я! ﴾полная версия, ч.2﴿
Зе BAD, 2012
Зе BAD‐2 ﴾Вырезанное﴿
Зе Bad‐2, часть 2
Из грязи в стразы, 2011
Как я провел ЭТО, 2010
Красота спасет мымр, 2012
Май на! ﴾часть 1﴿
Май на! ﴾часть 2﴿
Мужхитеры, ч.1 ﴾полная версия﴿
Мужхитеры, часть 2 ﴾полная версия﴿
На старт, внимание, март! 2011
Назад в булошную, ч.1, 2012
Назад в булошную, ч.2, 2012
Наноконцерт, 2011
Не вешать хвост, ветеринары
От томата до заката, 2011
Отцы и эти, 2011
Падал прошлогодний смех, 2010
Пинг‐понг жив, 2011
По уши в ЕГЭ, 2010
Смешняги, 2009 15.
Снега и зрелищ ‐ ч.1, 2012
Снега и зрелищ, ч.2, 2012
Снегодяи, ч.1, 2012
Снегодяи, ч.2, 2012
Союзы‐Аполлоны, 2011
Тень знаний ‐ ч.1, 2012
Тень знаний ‐ ч.2. 2012
Ура! Стипенсия! 2010
Худеем в тесте, часть 2
Худеем в тесте
Шагом фарш! 2010


Format : WebM
Format version : Version 2
File size : 586 MiB
Duration : 1h 11mn
Overall bit rate mode : Variable
Overall bit rate : 1 143 Kbps

Video
ID : 1
Format : VP8
Codec ID : V_VP8
Duration : 1h 11mn
Bit rate : 961 Kbps
Width : 640 pixels
Height : 480 pixels
Display aspect ratio : 4:3
Frame rate mode : Constant
Frame rate : 25.000 fps
Compression mode : Lossy
Bits/(Pixel*Frame) : 0.125
Stream size : 493 MiB (84%)
Language : English
Default : Yes
Forced : No

Audio
ID : 2
Format : Vorbis
Format settings, Floor : 1
Codec ID : A_VORBIS
Duration : 1h 11mn
Bit rate mode : Variable
Bit rate : 128 Kbps
Channel(s) : 2 channels
Sampling rate : 44.1 KHz
Compression mode : Lossy
Stream size : 65.6 MiB (11%)
Default : Yes
Forced : No









   Похожие торренты   Торрент   Размер 
В этой теме нет новых непрочитанных сообщений. The Sims 3. Gold Edition + Store June 2013 (2009 - 2013) PC | RePack от Fenixx

1899 | 69

16.88 ГБ

В этой теме нет новых непрочитанных сообщений. The Sims 3. Gold Edition + Store October 2013 (2009 - 2013) PC | RePack от Fenixx

7794 | 479

18.45 ГБ

В этой теме нет новых непрочитанных сообщений. Самая смешная реклама 2009 года / The Funniest Commercials Of The Year 2009 (2009) TVRip

59 | 9

352.48 МБ

В этой теме нет новых непрочитанных сообщений. КВН 2009. Высшая лига. Первая 1/2 финала (эфир 2009.10.25) (2009) SATRip - fanatus

0 | 2

1.35 ГБ

В этой теме нет новых непрочитанных сообщений. Евровидение 2009 (финал) / Еurovision 2009 (final) (Голосование включено!) (2009) SATRip

317 | 2

1.56 ГБ

В этой теме нет новых непрочитанных сообщений. Wardruna - Дискография (2009-2013) MP3

1564 | 74

279.53 МБ

В этой теме нет новых непрочитанных сообщений. Label: Never Say Die [38 releases] (2009-2013) MP3

2 | 2

2.01 ГБ




Вы не можете начинать темы
Вы не можете отвечать на сообщения
Вы не можете редактировать свои сообщения
Вы не можете удалять свои сообщения
Вы не можете добавлять вложения

Перейти:  
Для Мосгорсуда, Роскомнадзора и рекламодателей: mosgorsud-torrent[собачка]yandex.ru
 Вход
ppkBB3cker v.2 © 2008-2014 @ PPK
[ Time : 2.246s | 14 Queries | GZIP : Off ]

Торрент трекер RUTOR.IN, Не можете зайти на rutor.org? Какой новый адрес рутор? Какое зеркало рутор? Не работает rutor.org и зеркала? Тогда наш торрент специально для вас. Rutor.in неофициальное зеркало rutor. В случае если у Вас заблокирован rutor или вдруг Вы не можете на него зайти, то Вы без труда сможете скачать бесплатно и без рекламы последние новинки кино, игр, сериалов и прочего у нас, на Rutor.in. Не нужно использовать прокси, чтобы зайти на рутор, достаточно воспользоваться нашим ресурсом. Все новые фильмы, игры, сериалы, книги и музыка за 2013 и 2014 годы через торрент бесплатно. Скачивайте фильмы в хорошем качестве, игры для пк, xbox, playstation без регистрации. У нас вы найдете новые Зарубежные сериалы и Русские сериалы 2013, 2014, 2015 годов. Оставайтесь с нами, качайте любимые фильмы, игры, сериалы, книги и музыку.