img image001 image001 image001 image001 image001 image001 image001 image001 image001 image001 image001 image001 image001 image001 image001

Planets Sun Sun Sun
Статистика раздачи
Автор: Снежана | Размер: 532.82 МБ | Добавлен: 18 дек 2013
Раздают: 20    Качают: 6
Скачать торрент
Скачать торрент
Описание торрента

СообщениеДобавлено: 18 дек 2013 

#77

Информация о фильме
Название: Comedy Баттл. Без границ
Год выхода: 2013
Жанр: ТВ-Шоу
Ведущий: Павел Воля
Жюри: Семен Слепаков, Сергей Светлаков и Гарик Мартиросян

О фильме:
Кастинги «Comedy Баттл. Без границ» прошли не только по городам России, но и далеко за ее пределами. Самых лучших юмористов искали в Таллинне, Алматы, Минске, Дюссельдорфе, Тель-Авиве, Астане, Ереване, Тбилиси, Киеве, Харькове, Риге и многих других населенных пунктах ближнего и дальнего зарубежья. «Comedy Баттл. Без границ» ТНТ покажет в два этапа: первый – с 5 апреля и до лета, второй стартует осенью и продлится до самого нового года, когда и состоится финал шоу. Победитель станет новым резидентом Comedy Club.
Страна: Россия, ТНТ
Продолжительность: 00:45:27
Перевод: Оригинал

Файл
Кодек: XviD
Качество: SATRip
Видео: 720 x 400~1490 kb/s
Звук: 128 kb/s~MP3, 2ch.

Формат : AVI
Формат/Информация : Audio Video Interleave
Размер файла : 533 Мбайт
Продолжительность : 45 м.
Общий поток : 1638 Кбит/сек
Библиотека кодирования : VirtualDub build 32706/release

Видео
Идентификатор : 0
Формат : MPEG-4 Visual
Профиль формата : Advanced Simple@L5
Параметр BVOP формата : 2
Параметр QPel формата : Нет
Параметр GMC формата : Без точки перехода
Параметр матрицы формата : Default (MPEG)
Идентификатор кодека : XVID
Идентификатор кодека/Подсказка : XviD
Продолжительность : 45 м.
Битрейт : 1501 Кбит/сек
Ширина : 720 пикселей
Высота : 400 пикселей
Соотношение сторон : 16:9
Частота кадров : 25,000 кадров/сек
Цветовое пространство : YUV
Субдискретизация насыщенности : 4:2:0
Битовая глубина : 8 бит
Тип развёртки : Прогрессивная
Метод сжатия : С потерями
Бит/(Пиксели*Кадры) : 0.208
Размер потока : 488 Мбайт (92%)
Библиотека кодирования : XviD 1.2.1 (UTC 2008-12-04)

Аудио
Идентификатор : 1
Формат : MPEG Audio
Версия формата : Version 1
Профиль формата : Layer 3
Режим : Joint stereo
Расширение режима : MS Stereo
Идентификатор кодека : 55
Идентификатор кодека/Подсказка : MP3
Продолжительность : 45 м.
Вид битрейта : Постоянный
Битрейт : 128 Кбит/сек
Каналы : 2 канала
Частота : 48,0 КГц
Метод сжатия : С потерями
Размер потока : 41,6 Мбайт (8%)
Выравнивание : Разделение по промежуткам
Продолжительность промежутка : 40 мс. (1,00 видеокадр)
Время предзагрузки промежутка : 500 мс.





   Похожие торренты   Торрент   Размер 
В этой теме нет новых непрочитанных сообщений. Comedy Баттл без границ [01-13] (2013) SATRip

0 | 2

6.99 ГБ

В этой теме нет новых непрочитанных сообщений. Comedy Баттл без границ [01-22] (2013) SATRip

26 | 12

11.8 ГБ

В этой теме нет новых непрочитанных сообщений. Comedy Баттл без границ [04x01-04] (2013) SATRip

1 | 2

2.36 ГБ

В этой теме нет новых непрочитанных сообщений. Comedy Баттл без границ. Лучшее [01-05] (2013) SatRip

1 | 4

2.72 ГБ

В этой теме нет новых непрочитанных сообщений. Comedy Баттл без границ. Лучшее [эфир от 19.07] (2013) SatRip

0 | 2

586.66 МБ

В этой теме нет новых непрочитанных сообщений. Comedy Баттл без границ. Лучшее [эфир от 26.07] (2013) SatRip

0 | 2

557.96 МБ

В этой теме нет новых непрочитанных сообщений. Comedy Баттл без границ [25] (2013) WEB-DLRip

62 | 4

635.68 МБ




Вы не можете начинать темы
Вы не можете отвечать на сообщения
Вы не можете редактировать свои сообщения
Вы не можете удалять свои сообщения
Вы не можете добавлять вложения

Перейти:  
Для Мосгорсуда, Роскомнадзора и рекламодателей: mosgorsud-torrent[собачка]yandex.ru
 Вход
ppkBB3cker v.2 © 2008-2014 @ PPK
[ Time : 0.053s | 17 Queries | GZIP : Off ]

Торрент трекер RUTOR.IN, Не можете зайти на rutor.org? Какой новый адрес рутор? Какое зеркало рутор? Не работает rutor.org и зеркала? Тогда наш торрент специально для вас. Rutor.in неофициальное зеркало rutor. В случае если у Вас заблокирован rutor или вдруг Вы не можете на него зайти, то Вы без труда сможете скачать бесплатно и без рекламы последние новинки кино, игр, сериалов и прочего у нас, на Rutor.in. Не нужно использовать прокси, чтобы зайти на рутор, достаточно воспользоваться нашим ресурсом. Все новые фильмы, игры, сериалы, книги и музыка за 2013 и 2014 годы через торрент бесплатно. Скачивайте фильмы в хорошем качестве, игры для пк, xbox, playstation без регистрации. У нас вы найдете новые Зарубежные сериалы и Русские сериалы 2013, 2014, 2015 годов. Оставайтесь с нами, качайте любимые фильмы, игры, сериалы, книги и музыку.
cron