img image001 image001 image001 image001 image001 image001 image001 image001 image001 image001 image001 image001 image001 image001 image001

Planets Sun Sun Sun
Статистика раздачи
Автор: Nickolas3434 | Размер: 1.15 ГБ | Добавлен: 22 мар 2014
Раздают: 118    Качают: 40
Скачать торрент
Скачать торрент
Описание торрента

СообщениеДобавлено: 22 мар 2014 


Информация
Название: ООН. Организация Определенных Наций
Год выпуска: 2014
Жанр: Юмор


Описание:
С 28 февраля каждую пятницу любимые КВНщики будут собираться на свой собственный политическо-юмористический саммит, на котором вместе с известными телеведущими, звездами шоу-бизнеса и спорта будут шутить на самые актуальные и злободневные темы: от бытовых и повседневных до остросоциальных и политических. В каждой программе - сюрприз: появление звезд шоу-бизнеса, музыкантов, актеров и телеведущих. Причем они не просто освещают всех окружающих своей улыбкой, сидя в зрительном зале, а вместе с актерами разыгрывают на сцене уморительные скетчи, шутят и веселят публику.


Продолжительность: 01:24:48
Выпущено:
Перевод: Не требуется
Язык: Русский
Автор рипа: Просто_Крол
Файл
Формат: AVI
Качество: SATRip
Видео: XviD, ~1800 kb/s, 640 x 480
Аудио: MP3, 2 ch, 128 Кбит/с

Формат : AVI
Формат/Информация : Audio Video Interleave
Размер файла : 1,15 Гбайт
Продолжительность : 1 ч. 24 м.
Общий поток : 1938 Кбит/сек
Библиотека кодирования : VirtualDub build 32706/release
Видео
Идентификатор : 0
Формат : MPEG-4 Visual
Профиль формата : Advanced Simple@L5
Параметр BVOP формата : 2
Параметр QPel формата : Нет
Параметр GMC формата : Без точки перехода
Параметр матрицы формата : Default (MPEG)
Идентификатор кодека : XVID
Идентификатор кодека/Подсказка : XviD
Продолжительность : 1 ч. 24 м.
Битрейт : 1800 Кбит/сек
Ширина : 640 пикселей
Высота : 480 пикселей
Соотношение сторон : 4:3
Частота кадров : 25,000 кадров/сек
Цветовое пространство : YUV
Субдискретизация насыщенности : 4:2:0
Битовая глубина : 8 бит
Тип развёртки : Прогрессивная
Метод сжатия : С потерями
Бит/(Пиксели*Кадры) : 0.234
Размер потока : 1,07 Гбайт (93%)
Библиотека кодирования : XviD 1.2.1 (UTC 2008-12-04)
Аудио
Идентификатор : 1
Формат : MPEG Audio
Версия формата : Version 1
Профиль формата : Layer 3
Режим : Joint stereo
Расширение режима : MS Stereo
Идентификатор кодека : 55
Идентификатор кодека/Подсказка : MP3
Продолжительность : 1 ч. 24 м.
Вид битрейта : Постоянный
Битрейт : 128 Кбит/сек
Каналы : 2 канала
Частота : 48,0 КГц
Метод сжатия : С потерями
Размер потока : 77,6 Мбайт (7%)
Выравнивание : Разделение по промежуткам
Продолжительность промежутка : 40 мс. (1,00 видеокадр)
Время предзагрузки промежутка : 500 мс.






   Похожие торренты   Торрент   Размер 
В этой теме нет новых непрочитанных сообщений. Организация Определенных Наций [01-08] (2014) SATRip

137 | 80

10.37 ГБ

В этой теме нет новых непрочитанных сообщений. Организация Определенных Наций [01-05] (2014) SATRip

129 | 109

7.3 ГБ

В этой теме нет новых непрочитанных сообщений. Организация Определенных Наций [01-07] (2014) SATRip

54 | 30

9.23 ГБ

В этой теме нет новых непрочитанных сообщений. Организация Определенных Наций [01-04] (2014) SATRip

131 | 86

4.6 ГБ

В этой теме нет новых непрочитанных сообщений. Организация Определенных Наций [Эфир от 28.02] (2014) SATRip

250 | 24

1.13 ГБ

В этой теме нет новых непрочитанных сообщений. Спектакль - Калигула [Театр Наций] (2016) SATRip от Files-x

50 | 6

2.13 ГБ

В этой теме нет новых непрочитанных сообщений. Автоспорт. Гонка чемпионов. 2014. Кубок Наций [13.12] (2014) HDTVRemux 720p | 50fps

16 | 4

7.15 ГБ




Вы не можете начинать темы
Вы не можете отвечать на сообщения
Вы не можете редактировать свои сообщения
Вы не можете удалять свои сообщения
Вы не можете добавлять вложения

Перейти:  
Для Мосгорсуда, Роскомнадзора и рекламодателей: mosgorsud-torrent[собачка]yandex.ru
 Вход
ppkBB3cker v.2 © 2008-2014 @ PPK
[ Time : 0.223s | 18 Queries | GZIP : Off ]

cron