img image001 image001 image001 image001 image001 image001 image001 image001 image001 image001 image001 image001 image001 image001 image001

Planets Sun Sun Sun
Статистика раздачи
Автор: Nickolas3434 | Размер: 16.65 ГБ | Добавлен: 04 июн 2014
Раздают: 484    Качают: 203
Скачать торрент
Скачать торрент
Описание торрента

СообщениеДобавлено: 04 июн 2014 

Информация о фильме
Название: Stand Up
Год выхода: 2013-2014
Жанр: Юмористическое шоу, Stand up comedy
Режиссер: Роман Новиков
Ведущий: Руслан Белый
В ролях: Руслан Белый, Слава Комиссаренко, Юлия Ахмедова, Дмитрий Романов, Стас Старовойтов, Тимур Каргинов, Виктор Комаров, Александр Шаляпин

О фильме:
Новое юмористическое шоу в жанре стендап. Здесь люди рассказывают о своих проблемах. Слава богу, что они у нас есть!
Страна: Россия / Comedy Club Production
Продолжительность: ~ 00:45:00 выпуск
Файл
Кодек: XviD
Качество: SATRip, WEB-DLRip
Видео: 720x400, ~1500 Kbps, 25.000 fps
Звук: МР3, 48.0 KHz, 2 ch, 128 Kbps


Официальный сайт
General
Complete name : E:TorrentiStand.Up.2013.SATRipStand.Up.2013.SATRipStand.Up.(01).2013.SATRip.avi
Format : AVI
Format/Info : Audio Video Interleave
File size : 524 MiB
Duration : 44mn 41s
Overall bit rate : 1 639 Kbps
Writing library : VirtualDub build 32706/release
Video #0
ID : 0
Format : MPEG-4 Visual
Format profile : Advanced Simple@L5
Format settings, BVOP : 2
Format settings, QPel : No
Format settings, GMC : No warppoints
Format settings, Matrix : Default (MPEG)
Codec ID : XVID
Codec ID/Hint : XviD
Duration : 44mn 41s
Bit rate : 1 501 Kbps
Width : 720 pixels
Height : 400 pixels
Display aspect ratio : 16:9
Frame rate : 25.000 fps
Color space : YUV
Chroma subsampling : 4:2:0
Bit depth : 8 bits
Scan type : Progressive
Compression mode : Lossy
Bits/(Pixel*Frame) : 0.208
Stream size : 480 MiB (92%)
Writing library : XviD 1.2.1 (UTC 2008-12-04)
Audio #1
ID : 1
Format : MPEG Audio
Format version : Version 1
Format profile : Layer 3
Mode : Joint stereo
Mode extension : MS Stereo
Codec ID : 55
Codec ID/Hint : MP3
Duration : 44mn 41s
Bit rate mode : Constant
Bit rate : 128 Kbps
Channel(s) : 2 channels
Sampling rate : 48.0 KHz
Compression mode : Lossy
Stream size : 40.9 MiB (8%)
Alignment : Split accross interleaves
Interleave, duration : 40 ms (1.00 video frame)
Interleave, preload duration : 500 ms







   Похожие торренты   Торрент   Размер 
В этой теме нет новых непрочитанных сообщений. Stand Up [01х01-26] (2013-2014) SATRip, WEB-DLRip

101 | 84

15.38 ГБ

В этой теме нет новых непрочитанных сообщений. Stand Up [01х01-22] (2013-2014) SATRip, WEB-DLRip

44 | 82

12.82 ГБ

В этой теме нет новых непрочитанных сообщений. Stand Up [01х01-24] (2013-2014) SATRip, WEB-DLRip

37 | 36

14.08 ГБ

В этой теме нет новых непрочитанных сообщений. Stand Up [01х01-20] (2013-2014) SATRip, WEB-DLRip

27 | 101

11.52 ГБ

В этой теме нет новых непрочитанных сообщений. Stand Up [01х01-23] (2013-2014) SATRip, WEB-DLRip

26 | 99

13.44 ГБ

В этой теме нет новых непрочитанных сообщений. Stand Up [01х01-25] (2013-2014) SATRip, WEB-DLRip

56 | 43

14.73 ГБ

В этой теме нет новых непрочитанных сообщений. Stand Up [01х01-19] (2013-2014) SATRip, WEB-DLRip

55 | 171

10.86 ГБ




Вы не можете начинать темы
Вы не можете отвечать на сообщения
Вы не можете редактировать свои сообщения
Вы не можете удалять свои сообщения
Вы не можете добавлять вложения

Перейти:  
Для Мосгорсуда, Роскомнадзора и рекламодателей: mosgorsud-torrent[собачка]yandex.ru
 Вход
ppkBB3cker v.2 © 2008-2014 @ PPK
[ Time : 0.026s | 15 Queries | GZIP : Off ]

Торрент трекер RUTOR.IN, Не можете зайти на rutor.org? Какой новый адрес рутор? Какое зеркало рутор? Не работает rutor.org и зеркала? Тогда наш торрент специально для вас. Rutor.in неофициальное зеркало rutor. В случае если у Вас заблокирован rutor или вдруг Вы не можете на него зайти, то Вы без труда сможете скачать бесплатно и без рекламы последние новинки кино, игр, сериалов и прочего у нас, на Rutor.in. Не нужно использовать прокси, чтобы зайти на рутор, достаточно воспользоваться нашим ресурсом. Все новые фильмы, игры, сериалы, книги и музыка за 2013 и 2014 годы через торрент бесплатно. Скачивайте фильмы в хорошем качестве, игры для пк, xbox, playstation без регистрации. У нас вы найдете новые Зарубежные сериалы и Русские сериалы 2013, 2014, 2015 годов. Оставайтесь с нами, качайте любимые фильмы, игры, сериалы, книги и музыку.