img image001 image001 image001 image001 image001 image001 image001 image001 image001 image001 image001 image001 image001 image001 image001

Planets Sun Sun Sun
Статистика раздачи
Автор: Nickolas3434 | Размер: 2.67 ГБ | Добавлен: 04 июн 2014
Раздают: 271    Качают: 5
Скачать торрент
Скачать торрент
Описание торрента

СообщениеДобавлено: 04 июн 2014 

Оригинальное название: КВН. Высшая Лига
Год выпуска: 2013
Жанр: Юмористическая программа
Выпущено: Россия, Первый канал (HD)
Ведущий: Александр Масляков

О фильме: Что такое КВН, знают, без сомнения, все. В КВН играют во всем мире, это прежде всего молодежная игра. Постоянные конкурсные задания: "Визитная карточка", "Разминка", "Конкурс капитанов", "Музыкальный конкурс", "Домашнее задание". Игру команд оценивает профессиональное жюри — люди, у которых с чувством юмора все в порядке, многие из них раньше сами играли в КВН. Среди членов жюри были Константин Эрнст, Леонид Парфенов, Юлий Гусман, Леонид Ярмольник, Валдис Пельш, Сергей Шолохов, Геннадий Хазанов и другие. Кроме самих игр проводятся ежегодные встречи: фестиваль команд КВН (с 1990 г., семь раз фестиваль проходил в г.Сочи), музыкальный фестиваль КВН, летний кубок КВН, международные товарищеские игры в КВН. Сборная КВН играет со сборными других стран. Уже состоялись игры между сборной КВН и сборными Америки, Австралии, Израиля... Игра в КВН для многих становится профессией, а многие благодаря игре связывают жизнь с искусством. Из КВН "вышли": Леонид Якубович, Михаил Марфин, Татьяна Лазарева, Олег Филимонов, Юлий Гусман и многие другие.

"С.У.Р.А", ПГУАС, Пенза Сборная Дагестана, Махачкала "КемБридж" (сборная КемТИПП), Кемерово "Плохая компания", сборная Красноярского края "Детективное агентство "Лунный свет"", Белгород

Михаил Галустян, Валдис Пельш, Дмитрий Нагиев , Фоменко Николай, Никита Ефремов, Гусман Юлий


Качество: HDTV (720p)
Видео: AVC, 1280x720 (16:9), 25.000 fps, 3 200 Kbps (0.139 bit/pixel)
Аудио: AC-3, 48.0 KHz, 6 ch, 384 Kbps, CBR (Russian)
Продолжительность: 01:46:21

General
Unique ID : 185377007802463474129881962105383421408 (0x8B765022EA592092ABB31308F96005E0)
Complete name : KBH.2014.6.igra.HDTV.720p.mkv
Format : Matroska
Format version : Version 4 / Version 2
File size : 2.67 GiB
Duration : 1h 46mn
Overall bit rate : 3 596 Kbps
Encoded date : UTC 2014-06-01 18:23:06
Writing application : mkvmerge v6.7.0 ('Back to the Ground') 32bit built on Jan 8 2014 15:03:17
Writing library : libebml v1.3.0 + libmatroska v1.4.1

Video
ID : 1
Format : AVC
Format/Info : Advanced Video Codec
Format profile : High@L4.1
Format settings, CABAC : Yes
Format settings, ReFrames : 2 frames
Codec ID : V_MPEG4/ISO/AVC
Duration : 1h 46mn
Bit rate : 3 200 Kbps
Width : 1 280 pixels
Height : 720 pixels
Display aspect ratio : 16:9
Frame rate : 25.000 fps
Color space : YUV
Chroma subsampling : 4:2:0
Bit depth : 8 bits
Scan type : Progressive
Bits/(Pixel*Frame) : 0.139
Stream size : 2.33 GiB (87%)
Writing library : x264 core 138 r2358 9e941d1
Encoding settings : cabac=1 / ref=1 / deblock=1:-1:-1 / analyse=0x3:0x113 / me=dia / subme=1 / psy=1 / psy_rd=1.00:0.15 / mixed_ref=0 / me_range=16 / chroma_me=1 / trellis=1 / 8x8dct=1 / cqm=0 / deadzone=21,11 / fast_pskip=1 / chroma_qp_offset=-1 / threads=12 / lookahead_threads=2 / sliced_threads=0 / nr=0 / decimate=1 / interlaced=0 / bluray_compat=0 / constrained_intra=0 / bframes=1 / b_pyramid=0 / b_adapt=1 / b_bias=0 / direct=1 / weightb=1 / open_gop=0 / weightp=2 / keyint=250 / keyint_min=25 / scenecut=40 / intra_refresh=0 / rc_lookahead=40 / rc=abr / mbtree=1 / bitrate=3200 / ratetol=1.0 / qcomp=0.60 / qpmin=0 / qpmax=69 / qpstep=4 / vbv_maxrate=62500 / vbv_bufsize=78125 / nal_hrd=none / ip_ratio=1.40 / aq=1:1.00
Language : English
Default : Yes
Forced : Yes
Matrix coefficients : BT.709-5, BT.1361, IEC 61966-2-4 709, SMPTE RP177

Audio
ID : 2
Format : AC-3
Format/Info : Audio Coding 3
Mode extension : CM (complete main)
Format settings, Endianness : Big
Codec ID : A_AC3
Duration : 1h 46mn
Bit rate mode : Constant
Bit rate : 384 Kbps
Channel(s) : 6 channels
Channel positions : Front: L C R, Side: L R, LFE
Sampling rate : 48.0 KHz
Bit depth : 16 bits
Compression mode : Lossy
Stream size : 292 MiB (11%)
Language : Russian
Default : Yes
Forced : Yes




   Похожие торренты   Торрент   Размер 
В этой теме нет новых непрочитанных сообщений. КВН-2014. Высшая лига. Вторая 1/8 финала [эфир от 23.03] (2014) HDTV 1080i

65 | 11

6.31 ГБ

В этой теме нет новых непрочитанных сообщений. КВН-2014. Высшая лига. Вторая 1/4 финала [Эфир от 01.06] (2014) HDTV 1080i от MediaClub

320 | 32

11.3 ГБ

В этой теме нет новых непрочитанных сообщений. КВН-2014. Высшая лига. Вторая 1/8 финала [эфир от 23.03] (2014) HDTVRip 720p

159 | 21

3.85 ГБ

В этой теме нет новых непрочитанных сообщений. КВН-2014. Высшая лига. Вторая 1/4 финала [Эфир от 01.06] (2014) HDTVRip от MediaClub

4801 | 319

1.41 ГБ

В этой теме нет новых непрочитанных сообщений. КВН-2014. Высшая лига. Вторая 1/8 финала [эфир от 23.03] (2014) HDTVRip

670 | 79

1.57 ГБ

В этой теме нет новых непрочитанных сообщений. КВН-2014. Высшая лига. Вторая 1/8 финала [эфир 23.03] (2014) SATRip

2598 | 274

1.5 ГБ

В этой теме нет новых непрочитанных сообщений. КВН-2014. Высшая лига. Первая 1/4 финала [Эфир от 20.04] (2014) HDTV 1080i

1068 | 324

3.88 ГБ




Вы не можете начинать темы
Вы не можете отвечать на сообщения
Вы не можете редактировать свои сообщения
Вы не можете удалять свои сообщения
Вы не можете добавлять вложения

Перейти:  
Для Мосгорсуда, Роскомнадзора и рекламодателей: mosgorsud-torrent[собачка]yandex.ru
 Вход
ppkBB3cker v.2 © 2008-2014 @ PPK
[ Time : 0.040s | 16 Queries | GZIP : Off ]

cron