img image001 image001 image001 image001 image001 image001 image001 image001 image001 image001 image001 image001 image001 image001 image001

Planets Sun Sun Sun
Статистика раздачи
Автор: Nickolas3434 | Размер: 782.35 МБ | Добавлен: 19 июл 2014
Раздают: 81    Качают: 16
Скачать торрент
Скачать торрент
Описание торрента

СообщениеДобавлено: 19 июл 2014 

Год выпуска: 2014
Жанр: Юмор
Продолжительность: ~00:23:00

Режиссер: Россия, Канал перец
Сценарий: Сергей Ашарин

Премьера в мире: 23 октября 2014

Возрастное ограничение зрителям, достигшим 18 лет

В ролях: Евгений Рыбов (Комментарии закадровый голос)

Описание:Юмористическая программа "Моя Рассея" создана на основе пользовательских видеороликов, герои которых оказываются в необычных для себя ситуациях. Это курьезные истории про жителей различных регионов России, случайно заснятых на камеру.

Качество: DVB
Формат: ts*
Видео кодек: MPEG-2
Аудио кодек: MP2
Видео: MPEG 2, 768@720x576 (4:3), 25.000 fps, 4 578 Kbps (0.442 bit/pixel)
Аудио#1: 48 kHz, MPEG Layer 2, 1 ch, ~128.00 kbps avg

формат *ts можно поменять в mpg без перекодировки если данный формат не идет на вашем плеере

1)Заходим в «Пуск – Панель управления». Теперь вид просмотра выбираем «Мелкие значки» и заходим в «Параметры папок».

2)В открывшемся окне переходим на вкладку «Вид», опускаемся вниз и убираем галочку с пункта «Скрывать расширения для зарегистрированных типов файлов». Затем сохраняем, нажав кнопку «ОК».

3)Вот и все! Теперь мы кликаем правой кнопкой мыши по файлу, расширение которого нужно изменить , и в появившемся списке выбираем «Переименовать». пишем (MPG либо другой кроме AVI :sarcastic: )

Менять формат или нет выбор за вами.......

Релиз Группы: Goldenhshara / Deadmauvlad

Код:
Общее
Идентификатор                            : 1 (0x1)
Полное имя                               : D:Рипы выкладка [Deadmauvlad]Рипы готовыеMy_Russsia_Efir_Ot_28_06_2014_DVB_Deadmauvlad.ts
Формат                                   : MPEG-TS
Размер файла                             : 815 Мбайт
Продолжительность                        : 23 м.
Режим общего битрейта                    : Переменный
Общий поток                              : 4932 Кбит/сек

Видео
Идентификатор                            : 69 (0x45)
Идентификатор меню                       : 1 (0x1)
Формат                                   : MPEG Video
Версия формата                           : Version 2
Профиль формата                          : Main@Main
Параметр BVOP формата                    : Да
Параметр матрицы формата                 : Выборочная
Параметр GOP формата                     : M=3, N=24
Идентификатор кодека                     : 2
Продолжительность                        : 23 м.
Вид битрейта                             : Переменный
Битрейт                                  : 4578 Кбит/сек
Ширина                                   : 720 пикселей
Высота                                   : 576 пикселей
Соотношение сторон                       : 4:3
Частота кадров                           : 25,000 кадров/сек
Стандарт вещания                         : PAL
Цветовое пространство                    : YUV
Субдискретизация насыщенности            : 4:2:0
Битовая глубина                          : 8 бит
Тип развёртки                            : Чересстрочная
Порядок развёртки                        : Верхнее поле первое
Метод сжатия                             : С потерями
Бит/(Пиксели*Кадры)                      : 0.442
Временной код первого кадра              : 00:00:00:00
Оригинал временного кода                 : Group of pictures header
Размер потока                            : 753 Мбайт (92%)

Аудио
Идентификатор                            : 68 (0x44)
Идентификатор меню                       : 1 (0x1)
Формат                                   : MPEG Audio
Версия формата                           : Version 1
Профиль формата                          : Layer 2
Идентификатор кодека                     : 3
Продолжительность                        : 23 м.
Вид битрейта                             : Постоянный
Битрейт                                  : 128 Кбит/сек
Каналы                                   : 1 канал
Частота                                  : 48,0 КГц
Метод сжатия                             : С потерями
Задержка видео                           : 17 мс.
Размер потока                            : 21,1 Мбайт (3%)
Язык                                     : English




   Похожие торренты   Торрент   Размер 
В этой теме нет новых непрочитанных сообщений. Моя Рассея [Эфир от 26.07] (2014) DVB от Deadmauvlad

32 | 11

779.22 МБ

В этой теме нет новых непрочитанных сообщений. Моя Рассея (Эфир от 28.06) (2014) DVB от Deadmauvlad

44 | 5

814.58 МБ

В этой теме нет новых непрочитанных сообщений. Моя Рассея [Эфир от 27.07] (2014) SATRip от Deadmauvlad

28 | 10

350.07 МБ

В этой теме нет новых непрочитанных сообщений. Вне закона [эфир от 23.07] (2014) DVB от Deadmauvlad

92 | 23

1.62 ГБ

В этой теме нет новых непрочитанных сообщений. Вне закона [эфир от 21.07] (2014) DVB от Deadmauvlad

120 | 17

1.64 ГБ

В этой теме нет новых непрочитанных сообщений. Вне закона (Эфир от 16.07) (2014) DVB от Deadmauvlad

148 | 14

665.73 МБ

В этой теме нет новых непрочитанных сообщений. Вне закона [эфир от 24.07] (2014) DVB от Deadmauvlad

95 | 42

1.64 ГБ




Вы не можете начинать темы
Вы не можете отвечать на сообщения
Вы не можете редактировать свои сообщения
Вы не можете удалять свои сообщения
Вы не можете добавлять вложения

Перейти:  
Для Мосгорсуда, Роскомнадзора и рекламодателей: mosgorsud-torrent[собачка]yandex.ru
 Вход
ppkBB3cker v.2 © 2008-2014 @ PPK
[ Time : 0.131s | 15 Queries | GZIP : Off ]

Торрент трекер RUTOR.IN, Не можете зайти на rutor.org? Какой новый адрес рутор? Какое зеркало рутор? Не работает rutor.org и зеркала? Тогда наш торрент специально для вас. Rutor.in неофициальное зеркало rutor. В случае если у Вас заблокирован rutor или вдруг Вы не можете на него зайти, то Вы без труда сможете скачать бесплатно и без рекламы последние новинки кино, игр, сериалов и прочего у нас, на Rutor.in. Не нужно использовать прокси, чтобы зайти на рутор, достаточно воспользоваться нашим ресурсом. Все новые фильмы, игры, сериалы, книги и музыка за 2013 и 2014 годы через торрент бесплатно. Скачивайте фильмы в хорошем качестве, игры для пк, xbox, playstation без регистрации. У нас вы найдете новые Зарубежные сериалы и Русские сериалы 2013, 2014, 2015 годов. Оставайтесь с нами, качайте любимые фильмы, игры, сериалы, книги и музыку.