img image001 image001 image001 image001 image001 image001 image001 image001 image001 image001 image001 image001 image001 image001 image001

Planets Sun Sun Sun
Статистика раздачи
Автор: Nickolas3434 | Размер: 786.19 МБ | Добавлен: 27 июл 2014
Раздают: 73    Качают: 19
Скачать торрент
Скачать торрент
Описание торрента

СообщениеДобавлено: 27 июл 2014 

Информация о фильме
название: +100500
Год: 2014
Жанр: Юмор
Выпущено: Россия, Канал перец
Режиссер: Петр Сивак
сценарийМаксим Голополосов, Николай Михеев, Карен Арутюнов, ...
В ролях: Максим Голополосов

О фильме: В шоу «+100500» Максим Голополосов делает видеообзоры на смешные видеоролики, найденные в Интернете. Комический эффект достигается при помощи склейки фрагментов видеоклипа с комментариями ведущего. Для каждого выпуска подбирается четыре видеоролика. Исключение составили первые десять эпизодов, в которых было по три ролика, эпизоды 61 и 64, в которых было пять роликов, а также эпизоды с 94 по 102, в которых было только два ролика в связи с проведением съёмок в Лондоне и увеличением количества выпусков за неделю. Как правило, каждый эпизод именуется по названию, сюжету или ключевой фразе из последнего ролика (исключение составляет только «Очень новогодний эпизод»). Съёмки производятся на фоне леопардового покрывала (пользователи интернета зачастую называют его ковром), которым Максим раньше накрывал диван. Над проектом работает четыре человека



Файл
Качество: DVB
Формат файла: ts * (Cм.спойлер)
Видео кодек: MPEG-2
Аудио кодек: MP2
Видео: MPEG 2, 768@720x576 (4:3), 25.000 fps, 4 578 Kbps (0.442 bit/pixel)
Аудио: MP2, 48.0 KHz, 1 ch, 128 Kbps, CBR
формат *ts можно поменять в mpg без перекодировки если данный формат не идет на вашем плеере

1)Заходим в «Пуск – Панель управления». Теперь вид просмотра выбираем «Мелкие значки» и заходим в «Параметры папок».

2)В открывшемся окне переходим на вкладку «Вид», опускаемся вниз и убираем галочку с пункта «Скрывать расширения для зарегистрированных типов файлов». Затем сохраняем, нажав кнопку «ОК».

3)Вот и все! Теперь мы кликаем правой кнопкой мыши по файлу, расширение которого нужно изменить , и в появившемся списке выбираем «Переименовать». пишем (MPG либо другой кроме AVI)

Менять формат или нет выбор за вами.......

Код:
Общее
Идентификатор                            : 0 (0x0)
Полное имя                               : D:Рипы выкладка [Deadmauvlad]Рипы готовые+100500.DVB.Deadmauvlad.28.06.2014.ts
Формат                                   : MPEG-TS
Размер файла                             : 827 Мбайт
Длительность                        : 23 м.
Режим общего битрейта                    : Переменный
Общий поток                              : 4928 Кбит/сек

Видео
Идентификатор                            : 301 (0x12D)
Идентификатор меню                       : 1 (0x1)
Формат                                   : MPEG Video
Версия формата                           : Version 2
Профиль формата                          : Main@Main
Параметр BVOP формата                    : Да
Параметр матрицы формата                 : Выборочная
Параметр GOP формата                     : Variable
Идентификатор кодека                     : 2
Длительность                        : 23 м.
Вид битрейта                             : Переменный
Битрейт                                  : 4578 Кбит/сек
Ширина                                   : 720 пикселей
Высота                                   : 576 пикселей
Соотношение сторон                       : 4:3
Частота кадров                           : 25,000 кадров/сек
Стандарт вещания                         : PAL
Цветовое пространство                    : YUV
Субдискретизация насыщенности            : 4:2:0
Битовая глубина                          : 8 бит
Тип развёртки                            : Чересстрочная
Порядок развёртки                        : Верхнее поле первое
Метод сжатия                             : С потерями
Бит/(Пиксели*Кадры)                      : 0.442
Временной код первого кадра              : 00:00:00:00
Оригинал временного кода                 : Group of pictures header
Размер потока                            : 765 Мбайт (92%)

Аудио
Идентификатор                            : 302 (0x12E)
Идентификатор меню                       : 1 (0x1)
Формат                                   : MPEG Audio
Версия формата                           : Version 1
Профиль формата                          : Layer 2
Идентификатор кодека                     : 3
Длительность                        : 23 м.
Вид битрейта                             : Постоянный
Битрейт                                  : 128 Кбит/сек
Каналы                                   : 1 канал
Частота                                  : 48,0 КГц
Метод сжатия                             : С потерями
Размер потока                            : 21,5 Мбайт (3%)



Релиз группа: Goldenshara / Deadmauvlad



   Похожие торренты   Торрент   Размер 
В этой теме нет новых непрочитанных сообщений. +100500 на Перец ТВ [Новый сезон] (Эфир от 13.07) (2014) DVB от Deadmauvlad

57 | 30

846.34 МБ

В этой теме нет новых непрочитанных сообщений. +100500 на Перец ТВ [Новый сезон] [Эфир от 20.09] (2014) DVB от Deadmauvlad

98 | 52

847.43 МБ

В этой теме нет новых непрочитанных сообщений. +100500 на Перец ТВ [Новый сезон] (Эфир от 28.06) (2014) DVB от Deadmauvlad

24 | 86

827.12 МБ

В этой теме нет новых непрочитанных сообщений. +100500 на Перец ТВ [Новый сезон] (Эфир от 30.05) (2014) DVB от Deadmauvlad

98 | 24

835.49 МБ

В этой теме нет новых непрочитанных сообщений. +100500 на Перец ТВ [Новый сезон] [Эфир от 05.10] (2014) DVB от Deadmauvlad

24 | 4

892.61 МБ

В этой теме нет новых непрочитанных сообщений. +100500 на Перец ТВ [Новый сезон] [Эфир от 30.08] (2014) DVB от Deadmauvlad

30 | 4

778.93 МБ

В этой теме нет новых непрочитанных сообщений. +100500 на Перец ТВ [Новый сезон] [Эфир от 16.08] (2014) DVB от Deadmauvlad

99 | 10

978.97 МБ




Вы не можете начинать темы
Вы не можете отвечать на сообщения
Вы не можете редактировать свои сообщения
Вы не можете удалять свои сообщения
Вы не можете добавлять вложения

Перейти:  
Для Мосгорсуда, Роскомнадзора и рекламодателей: mosgorsud-torrent[собачка]yandex.ru
cron
 Вход
ppkBB3cker v.2 © 2008-2014 @ PPK
[ Time : 0.034s | 16 Queries | GZIP : Off ]

Торрент трекер RUTOR.IN, Не можете зайти на rutor.org? Какой новый адрес рутор? Какое зеркало рутор? Не работает rutor.org и зеркала? Тогда наш торрент специально для вас. Rutor.in неофициальное зеркало rutor. В случае если у Вас заблокирован rutor или вдруг Вы не можете на него зайти, то Вы без труда сможете скачать бесплатно и без рекламы последние новинки кино, игр, сериалов и прочего у нас, на Rutor.in. Не нужно использовать прокси, чтобы зайти на рутор, достаточно воспользоваться нашим ресурсом. Все новые фильмы, игры, сериалы, книги и музыка за 2013 и 2014 годы через торрент бесплатно. Скачивайте фильмы в хорошем качестве, игры для пк, xbox, playstation без регистрации. У нас вы найдете новые Зарубежные сериалы и Русские сериалы 2013, 2014, 2015 годов. Оставайтесь с нами, качайте любимые фильмы, игры, сериалы, книги и музыку.
cron