img image001 image001 image001 image001 image001 image001 image001 image001 image001 image001 image001 image001 image001 image001 image001

Planets Sun Sun Sun
Статистика раздачи
Автор: Nickolas3434 | Размер: 859.32 МБ | Добавлен: 12 окт 2014
Раздают: 324    Качают: 28
Скачать торрент
Скачать торрент
Описание торрента

СообщениеДобавлено: 12 окт 2014 

Информация о фильме
Название: Михаил Задорнов. Неформат 59 (iPhone 6, повышение цен, вирус Эбола)
Год выхода: 2014
Жанр: документальный
В ролях: Михаил Задорнов
О фильме:
Михаил Задорнов расскажет все про новый iPhone 6 (25:27), поделится секретной информацией о росте цен на все в нашей стране, оценит угрозу распространения вируса Эбола (36:27) и затронет политические темы.
Страна: Россия
Продолжительность: 01:20:31
Перевод: Не требуется
Файл
Кодек: h.264
Качество: IPTVRip
Видео: 1280x720 (16:9), 25,000 fps, AVC (x264) High@L3.1, ~ 1297 kbps avg, 0.056bit/pixel
Звук: 44.1 kHz, AAC, (Front: L R) , 2 ch ~192Kbps avg
Format : MPEG-4
Format profile : Base Media / Version 2
Codec ID : mp42
File size : 859 MiB
Duration : 1h 20mn
Overall bit rate mode : Variable
Overall bit rate : 1 492 Kbps
Encoded date : UTC 2014-10-04 09:52:08
Tagged date : UTC 2014-10-04 09:52:08
gsst : 0
gstd : 4831931
gssd : B5E893FC6HH1412554869192858
gshh : r3---sn-vh3j-vhne.googlevideo.com
Video
ID : 1
Format : AVC
Format/Info : Advanced Video Codec
Format profile : High@L3.1
Format settings, CABAC : Yes
Format settings, ReFrames : 1 frame
Format settings, GOP : M=1, N=60
Codec ID : avc1
Codec ID/Info : Advanced Video Coding
Duration : 1h 20mn
Bit rate : 1 297 Kbps
Maximum bit rate : 4 189 Kbps
Width : 1 280 pixels
Height : 720 pixels
Display aspect ratio : 16:9
Frame rate mode : Constant
Frame rate : 25.000 fps
Color space : YUV
Chroma subsampling : 4:2:0
Bit depth : 8 bits
Scan type : Progressive
Bits/(Pixel*Frame) : 0.056
Stream size : 747 MiB (87%)
Tagged date : UTC 2014-10-04 09:53:27
Audio
ID : 2
Format : AAC
Format/Info : Advanced Audio Codec
Format profile : LC
Codec ID : 40
Duration : 1h 20mn
Bit rate mode : Variable
Bit rate : 192 Kbps
Maximum bit rate : 202 Kbps
Channel(s) : 2 channels
Channel positions : Front: L R
Sampling rate : 44.1 KHz
Compression mode : Lossy
Stream size : 111 MiB (13%)
Title : IsoMedia File Produced by Google, 5-11-2011
Encoded date : UTC 2014-10-04 09:52:53
Tagged date : UTC 2014-10-04 09:53:27




   Похожие торренты   Торрент   Размер 
В этой теме нет новых непрочитанных сообщений. Михаил Задорнов. Неформат 75. ИГИЛ, Сирия, Путин в ООН [03.10] (2015) WEBRip

1369 | 107

1.37 ГБ

В этой теме нет новых непрочитанных сообщений. М. Задорнов: «Человек-неформат, или 6:5 в пользу Задорнова» (2014) SATRip от Sanjar & NeoJet | КПК

143 | 8

429.51 МБ

В этой теме нет новых непрочитанных сообщений. Михаил Задорнов - Закрыватель Америки [26.07] (2014) SATRip

777 | 45

1.34 ГБ

В этой теме нет новых непрочитанных сообщений. Михаил Задорнов - Мы все из Чи-Чи-Чи-Пи (2006) DVD5

0 | 354

3.13 ГБ

В этой теме нет новых непрочитанных сообщений. Михаил Задорнов - Мы чье, дурачье? (2004) МР3

33 | 12

11.55 МБ

В этой теме нет новых непрочитанных сообщений. Михаил Задорнов - Смехопомощь 03 (2003) МР3

9 | 9

14.39 МБ

В этой теме нет новых непрочитанных сообщений. Михаил Задорнов - Концертография (1990-2011) MP3

166 | 86

6.77 ГБ




Вы не можете начинать темы
Вы не можете отвечать на сообщения
Вы не можете редактировать свои сообщения
Вы не можете удалять свои сообщения
Вы не можете добавлять вложения

Перейти:  
Для Мосгорсуда, Роскомнадзора и рекламодателей: mosgorsud-torrent[собачка]yandex.ru
 Вход
ppkBB3cker v.2 © 2008-2014 @ PPK
[ Time : 0.033s | 15 Queries | GZIP : Off ]

Торрент трекер RUTOR.IN, Не можете зайти на rutor.org? Какой новый адрес рутор? Какое зеркало рутор? Не работает rutor.org и зеркала? Тогда наш торрент специально для вас. Rutor.in неофициальное зеркало rutor. В случае если у Вас заблокирован rutor или вдруг Вы не можете на него зайти, то Вы без труда сможете скачать бесплатно и без рекламы последние новинки кино, игр, сериалов и прочего у нас, на Rutor.in. Не нужно использовать прокси, чтобы зайти на рутор, достаточно воспользоваться нашим ресурсом. Все новые фильмы, игры, сериалы, книги и музыка за 2013 и 2014 годы через торрент бесплатно. Скачивайте фильмы в хорошем качестве, игры для пк, xbox, playstation без регистрации. У нас вы найдете новые Зарубежные сериалы и Русские сериалы 2013, 2014, 2015 годов. Оставайтесь с нами, качайте любимые фильмы, игры, сериалы, книги и музыку.