img image001 image001 image001 image001 image001 image001 image001 image001 image001 image001 image001 image001 image001 image001 image001

Planets Sun Sun Sun
Статистика раздачи
Автор: Nickolas3434 | Размер: 449.66 МБ | Добавлен: 18 окт 2014
Раздают: 102    Качают: 27
Скачать торрент
Скачать торрент
Описание торрента

СообщениеДобавлено: 18 окт 2014 

Информация о фильме
название: +100500
Год: 2014
Жанр: Юмор
Выпущено: Россия, Канал перец
Режиссер: Петр Сивак
сценарийМаксим Голополосов, Николай Михеев, Карен Арутюнов, ...
В ролях: Максим Голополосов
О фильме: В шоу «+100500» Максим Голополосов делает видеообзоры на смешные видеоролики, найденные в Интернете. Комический эффект достигается при помощи склейки фрагментов видеоклипа с комментариями ведущего. Для каждого выпуска подбирается четыре видеоролика. Исключение составили первые десять эпизодов, в которых было по три ролика, эпизоды 61 и 64, в которых было пять роликов, а также эпизоды с 94 по 102, в которых было только два ролика в связи с проведением съёмок в Лондоне и увеличением количества выпусков за неделю. Как правило, каждый эпизод именуется по названию, сюжету или ключевой фразе из последнего ролика (исключение составляет только «Очень новогодний эпизод»). Съёмки производятся на фоне леопардового покрывала (пользователи интернета зачастую называют его ковром), которым Максим раньше накрывал диван. Над проектом работает четыре человека

Файл
Качество: SATRip-AVC
Формат файла: mkv
Видео кодек: AVC
Аудио кодек: MP2 / AC3
Видео: AVC, 720x400 (16:9), 25.000 fps, 2 246 Kbps (0.312 bit/pixel)
Аудио #1: AC-3, 48.0 KHz, 2 ch, 192 Kbps, CBR (Russian)
Аудио #2: MP2, 48.0 KHz, 2 ch, 192 Kbps, CBR (Russian)
Код:
+100500.SATRip-AVC.By.DeadmauvladTV.18.10.2014.mkv
Формат                                   : Matroska
Версия формата                           : Version 4 / Version 2
Размер файла                             : 450 Мбайт
Продолжительность                        : 23 м.
Режим общего битрейта                    : Переменный
Общий поток                              : 2633 Кбит/сек
Дата кодирования                         : UTC 2014-10-17 11:21:10
Программа кодирования                    : mkvmerge v6.1.0 ('Old Devil') built on Mar  4 2013 09:10:42
Библиотека кодирования                   : libebml v1.3.0 + libmatroska v1.4.0
DURATION                                 : 00:23:52.840000000
NUMBER_OF_FRAMES                         : 35821
NUMBER_OF_BYTES                          : 402295691
_STATISTICS_WRITING_APP                  : mkvmerge v7.0.0 ('Where We Going') 32bit built on Jun  9 2014 15:08:34
_STATISTICS_WRITING_DATE_UTC             : 2014-10-15 15:13:53
_STATISTICS_TAGS                         : BPS DURATION NUMBER_OF_FRAMES NUMBER_OF_BYTES
Видео
Идентификатор                            : 3
Формат                                   : AVC
Формат/Информация                        : Advanced Video Codec
Профиль формата                          : High@L4.1
Параметр CABAC формата                   : Да
Параметр ReFrames формата                : 5 кадров
Идентификатор кодека                     : V_MPEG4/ISO/AVC
Продолжительность                        : 23 м.
Вид битрейта                             : Переменный
Битрейт                                  : 2246 Кбит/сек
Максимальный битрейт                     : 40,0 Мбит/сек
Ширина                                   : 720 пикселей
Высота                                   : 400 пикселей
Соотношение сторон                       : 16:9
Режим частоты кадров                     : Постоянный
Частота кадров                           : 25,000 кадров/сек
Цветовое пространство                    : YUV
Субдискретизация насыщенности            : 4:2:0
Битовая глубина                          : 8 бит
Тип развёртки                            : Прогрессивная
Бит/(Пиксели*Кадры)                      : 0.312
Размер потока                            : 375 Мбайт (83%)
Заголовок                                : SATRip-AVC  By Deadmauvlad TV [ R.G Goldenshara ]
Библиотека кодирования                   : x264 core 142 r2431 ac76440
Настройки программы                      : cabac=1 / ref=6 / deblock=1:1:-3 / analyse=0x3:0x133 / me=umh / subme=11 / psy=1 / psy_rd=1.00:0.10 / mixed_ref=1 / me_range=35 / chroma_me=1 / trellis=2 / 8x8dct=1 / cqm=0 / deadzone=21,11 / fast_pskip=1 / chroma_qp_offset=-3 / threads=3 / lookahead_threads=1 / sliced_threads=0 / slices=4 / nr=0 / decimate=1 / interlaced=0 / bluray_compat=1 / constrained_intra=0 / bframes=3 / b_pyramid=1 / b_adapt=2 / b_bias=0 / direct=1 / weightb=1 / open_gop=1 / weightp=1 / keyint=25 / keyint_min=1 / scenecut=43 / intra_refresh=0 / rc_lookahead=25 / rc=2pass / mbtree=1 / bitrate=2246 / ratetol=1.0 / qcomp=0.60 / qpmin=0 / qpmax=69 / qpstep=4 / cplxblur=20.0 / qblur=0.5 / vbv_maxrate=40000 / vbv_bufsize=30000 / nal_hrd=vbr / filler=0 / ip_ratio=1.40 / aq=1:1.00
Язык                                     : Russian
Default                                  : Да
Forced                                   : Нет
Аудио #1
Идентификатор                            : 1
Формат                                   : MPEG Audio
Версия формата                           : Version 1
Профиль формата                          : Layer 2
Идентификатор кодека                     : A_MPEG/L2
Идентификатор кодека/Подсказка           : MP2
Продолжительность                        : 23 м.
Вид битрейта                             : Постоянный
Битрейт                                  : 192 Кбит/сек
Каналы                                   : 2 канала
Частота                                  : 48,0 КГц
Метод сжатия                             : С потерями
Размер потока                            : 32,8 Мбайт (7%)
Заголовок                                : MP2 D.D 2.0 192kbps 2ch 16bit 48000khz
Язык                                     : Russian
Default                                  : Нет
Forced                                   : Нет
Аудио #2
Идентификатор                            : 2
Формат                                   : AC-3
Формат/Информация                        : Audio Coding 3
Расширение режима                        : CM (complete main)
Параметр Endianness формата              : Big
Идентификатор кодека                     : A_AC3
Продолжительность                        : 23 м.
Вид битрейта                             : Постоянный
Битрейт                                  : 192 Кбит/сек
Каналы                                   : 2 канала
Расположение каналов                     : Front: L R
Частота                                  : 48,0 КГц
Битовая глубина                          : 16 бит
Метод сжатия                             : С потерями
Размер потока                            : 32,8 Мбайт (7%)
Заголовок                                : AC3 D.D 2.0 192kbps 2ch 16bit 48000khz
Язык                                     : Russian
Default                                  : Да
Forced                                   : Да


Релиз: Deadmauvlad



   Похожие торренты   Торрент   Размер 
В этой теме нет новых непрочитанных сообщений. +100500 на Перец ТВ [Новый сезон] (Эфир от 05.10) (2014) SATRip от Deadmauvlad

154 | 9

373.77 МБ

В этой теме нет новых непрочитанных сообщений. +100500 на Перец ТВ [Новый сезон] (Эфир от 21.06) (2014) SATRip от Deadmauvlad

245 | 18

349.97 МБ

В этой теме нет новых непрочитанных сообщений. +100500 на Перец ТВ [Новый сезон] (Эфир от 27.06) (2014) SATRip от Deadmauvlad

144 | 14

350.12 МБ

В этой теме нет новых непрочитанных сообщений. +100500 на Перец ТВ [Новый сезон] (Эфир от 18.10) (2014) SATRip от Deadmauvlad

141 | 42

350.86 МБ

В этой теме нет новых непрочитанных сообщений. +100500 на Перец ТВ [Новый сезон] (Эфир от 27.07) (2014) SATRip от Deadmauvlad

147 | 10

350.26 МБ

В этой теме нет новых непрочитанных сообщений. +100500 на Перец ТВ [Новый сезон] (Эфир от 30.05) (2014) SATRip от Deadmauvlad

108 | 6

250.68 МБ

В этой теме нет новых непрочитанных сообщений. +100500 на Перец ТВ [Новый сезон] (Эфир от 13.07) (2014) SATRip от Deadmauvlad

109 | 11

347.73 МБ




Вы не можете начинать темы
Вы не можете отвечать на сообщения
Вы не можете редактировать свои сообщения
Вы не можете удалять свои сообщения
Вы не можете добавлять вложения

Перейти:  
Для Мосгорсуда, Роскомнадзора и рекламодателей: mosgorsud-torrent[собачка]yandex.ru
 Вход
ppkBB3cker v.2 © 2008-2014 @ PPK
[ Time : 0.053s | 16 Queries | GZIP : Off ]

cron