img image001 image001 image001 image001 image001 image001 image001 image001 image001 image001 image001 image001 image001 image001 image001

Planets Sun Sun Sun
Статистика раздачи
Автор: Nickolas3434 | Размер: 1.46 ГБ | Добавлен: 04 янв 2015
Раздают: 2124    Качают: 33
Скачать торрент
Скачать торрент
Описание торрента

СообщениеДобавлено: 04 янв 2015 

Информация о фильме
Название: Уральские пельмени. Когда носы в 12-ть бьют!
Год выхода: 2014
Жанр: Юмор, телепередача
Режиссер: Сергей Ершов
В ролях: Дмитрий Брекоткин, Сергей Ершов, Сергей Исаев, Сергей Калугин, Вячеслав Мясников, Сергей Нетиевский, Александр Попов, Андрей Рожков, Сергей Светлаков, Дмитрий Соколов, Максим Ярица, Юля Михалкова
О фильме:
Весёлые парни в мандариновых рубашках не дадут соскучиться и подарят отличное настроение всей семье. У юмора «Уральских пельменей» нет возрастных ограничений, они избегают «шуток ниже пояса» и на их концертах пятилетние дети смеются рядом с 50-ти летними взрослыми. Новое комедийное шоу включает в себя как самостоятельные сценические истории, так и импровизации с залом, а также смешные сценки со звёздами, которые пришли посмотреть на любимую команду и неожиданно для себя оказались на сцене.
В программе:
- Парад «Дедов Мордоворозов»
- Сказка «Оливьешка и семь снобов»
- Музыкальный марафон "Проспись и пой!"
- Мужские игры под названием "Годом буду не забуду!"
- Гости из зарубежья «Гарри шпротер и почечный камень»
- В кульминации вечера «Синий Синий Иииигорь»
В перерывах Вам будет предложено поучаствовать в конкурсах «Покажи снегурочка...» и «Кто в лес, тот и в дрова»
Страна: Россия
Студия: СТС
Продолжительность: 01:12:47 [Полный Концерт !!]
Перевод: Не требуется
Файл
Кодек: XviD
Качество: WEBRip 720 by Deadmauvlad
Видео: AVC, 1280x720 (16:9), 25.000 fps, 2 423 Kbps (0.105 bit/pixel)
Аудио: AC-3, 44.1 KHz, 2 ch, 384 Kbps, CBR
Urals!e.Pelemen!.k0gda.nosyi.v.12.th.buyt.2014.WEB-DL.720.Deadmauvlad.mkv
Формат : Matroska
Версия формата : Version 4 / Version 2
Размер файла : 1,46 Гбайт
Продолжительность : 1 ч. 12 м.
Общий поток : 2864 Кбит/сек
Дата кодирования : UTC 2015-01-03 05:51:15
Программа кодирования : mkvmerge v6.1.0 ('Old Devil') built on Mar 4 2013 09:10:42
Библиотека кодирования : libebml v1.3.0 + libmatroska v1.4.0
Видео
Идентификатор : 1
Формат : AVC
Формат/Информация : Advanced Video Codec
Профиль формата : High@L3.1
Параметр CABAC формата : Да
Параметр ReFrames формата : 1 кадр
Параметр GOP формата : M=1, N=60
Идентификатор кодека : V_MPEG4/ISO/AVC
Продолжительность : 1 ч. 12 м.
Битрейт : 2423 Кбит/сек
Ширина : 1280 пикселей
Высота : 720 пикселей
Соотношение сторон : 16:9
Режим частоты кадров : Постоянный
Частота кадров : 25,000 кадров/сек
Цветовое пространство : YUV
Субдискретизация насыщенности : 4:2:0
Битовая глубина : 8 бит
Тип развёртки : Прогрессивная
Бит/(Пиксели*Кадры) : 0.105
Размер потока : 1,23 Гбайт (85%)
Заголовок : Rip by Deadmauvlad [R.G Goldenshara / Deadmauvlad.tv ]
Язык : Russian
Default : Да
Forced : Нет
Аудио
Идентификатор : 2
Формат : AC-3
Формат/Информация : Audio Coding 3
Расширение режима : CM (complete main)
Параметр Endianness формата : Big
Идентификатор кодека : A_AC3
Продолжительность : 1 ч. 12 м.
Вид битрейта : Постоянный
Битрейт : 384 Кбит/сек
Каналы : 2 канала
Расположение каналов : Front: L R
Частота : 44,1 КГц
Битовая глубина : 16 бит
Метод сжатия : С потерями
Размер потока : 200 Мбайт (13%)
Default : Да
Forced : Нет




   Похожие торренты   Торрент   Размер 
В этой теме нет новых непрочитанных сообщений. Уральские пельмени. Когда носы в 12-ть бьют! (2014) WEBRip от Deadmauvlad

1175 | 481

1.36 ГБ

В этой теме нет новых непрочитанных сообщений. Уральские пельмени. Когда носы в 12-ть бьют! (2014) SATRip

1656 | 39

975.74 МБ

В этой теме нет новых непрочитанных сообщений. Уральские пельмени. Музыка нас слизала (2014) WEBRip от Deadmauvlad

298 | 9

1023.16 МБ

В этой теме нет новых непрочитанных сообщений. Уральские Пельмени. В вуз не дуем! [01-02 из 02] (2014) WEBRip 720p

2092 | 74

1.86 ГБ

В этой теме нет новых непрочитанных сообщений. Уральские Пельмени. Грачи пролетели [01-02] (2014) WEBRip 720p

635 | 288

1.92 ГБ

В этой теме нет новых непрочитанных сообщений. Уральские пельмени: Волшебники страны Ой (2014) WEBRip 720p

3488 | 69

1.18 ГБ

В этой теме нет новых непрочитанных сообщений. Уральские Пельмени. Колидоры искуств [01-02 из 02] (2014) WEBRip 720p

476 | 23

1.81 ГБ




Вы не можете начинать темы
Вы не можете отвечать на сообщения
Вы не можете редактировать свои сообщения
Вы не можете удалять свои сообщения
Вы не можете добавлять вложения

Перейти:  
Для Мосгорсуда, Роскомнадзора и рекламодателей: mosgorsud-torrent[собачка]yandex.ru
 Вход
ppkBB3cker v.2 © 2008-2014 @ PPK
[ Time : 0.035s | 15 Queries | GZIP : Off ]

Торрент трекер RUTOR.IN, Не можете зайти на rutor.org? Какой новый адрес рутор? Какое зеркало рутор? Не работает rutor.org и зеркала? Тогда наш торрент специально для вас. Rutor.in неофициальное зеркало rutor. В случае если у Вас заблокирован rutor или вдруг Вы не можете на него зайти, то Вы без труда сможете скачать бесплатно и без рекламы последние новинки кино, игр, сериалов и прочего у нас, на Rutor.in. Не нужно использовать прокси, чтобы зайти на рутор, достаточно воспользоваться нашим ресурсом. Все новые фильмы, игры, сериалы, книги и музыка за 2013 и 2014 годы через торрент бесплатно. Скачивайте фильмы в хорошем качестве, игры для пк, xbox, playstation без регистрации. У нас вы найдете новые Зарубежные сериалы и Русские сериалы 2013, 2014, 2015 годов. Оставайтесь с нами, качайте любимые фильмы, игры, сериалы, книги и музыку.