img image001 image001 image001 image001 image001 image001 image001 image001 image001 image001 image001 image001 image001 image001 image001

Planets Sun Sun Sun
Статистика раздачи
Автор: Nickolas3434 | Размер: 1.49 ГБ | Добавлен: 05 окт 2015, 12:13
Раздают: 419    Качают: 46
Скачать торрент
Скачать торрент
Описание торрента

СообщениеДобавлено: 05 окт 2015, 12:13 


Информация о фильме
Название: КВН - Летний кубок в Сочи 2015
Год выхода: 2015
Ведущий: Александр Масляков
О фильме:
В рамках КВН-недели в Сочи за обладание кубком боролись чемпионы Высшей лиги 2013 года, победители Летнего кубка 2014 года – команда КВН "ГородЪ ПятигорскЪ", Ставропольский край и новоиспеченный чемпион прошлого сезона – "Союз", Тюменская область.
Каждая команда для участия в кубке пригласила своих друзей из других команд: за Пятигорск сыграла команда "Парапапарам", МГИМО, Москва, команде "Союз" помогали участники Сборной Физтеха, Долгопрудный.
Страна: Россия
Продолжительность: ~02:00:00
Перевод: Не требуется
Файл
Кодек: DivX
Качество: SATRip
Видео: DivX 6.9.2 704x448 25.00fps 1500kbps
Звук: MPEG Audio Layer 3 48000Hz stereo 192kbps

Общее
Полное имя : D:KVN.04.10.2015.SATRip.avi
Формат : AVI
Формат/Информация : Audio Video Interleave
Размер файла : 1,49 Гбайт
Продолжительность : 1 ч. 46 м.
Общий поток : 2000 Кбит/сек
Программа кодирования : VirtualDubMod 1.5.10.3 | www.virtualdub-fr.org || (build 2550/release)
Библиотека кодирования : VirtualDubMod build 2550/release
Видео
Идентификатор : 0
Формат : MPEG-4 Visual
Профиль формата : Advanced Simple@L5
Параметр BVOP формата : 2
Параметр QPel формата : Нет
Параметр GMC формата : Без точки перехода
Параметр матрицы формата : Default (H.263)
Идентификатор кодека : XVID
Идентификатор кодека/Подсказка : XviD
Продолжительность : 1 ч. 46 м.
Битрейт : 1798 Кбит/сек
Ширина : 704 пикселя
Высота : 448 пикселей
Соотношение сторон : 16:10
Частота кадров : 25,000 кадров/сек
Цветовое пространство : YUV
Субдискретизация насыщенности : 4:2:0
Битовая глубина : 8 бит
Тип развёртки : Прогрессивная
Метод сжатия : С потерями
Бит/(Пиксели*Кадры) : 0.228
Размер потока : 1,34 Гбайт (90%)
Библиотека кодирования : XviD 1.2.1 (UTC 2008-12-04)
Аудио
Идентификатор : 1
Формат : AC-3
Формат/Информация : Audio Coding 3
Расширение режима : CM (complete main)
Параметр Endianness формата : Big
Идентификатор кодека : 2000
Продолжительность : 1 ч. 46 м.
Вид битрейта : Постоянный
Битрейт : 192 Кбит/сек
Каналы : 2 канала
Расположение каналов : Front: L R
Частота : 48,0 КГц
Метод сжатия : С потерями
Размер потока : 146 Мбайт (10%)
Выравнивание : Разделение по промежуткам
Продолжительность промежутка : 40 мс. (1,00 видеокадр)
Время предзагрузки промежутка : 500 мс.

Релиз от:



   Похожие торренты   Торрент   Размер 
В этой теме нет новых непрочитанных сообщений. КВН-2015.Летний Кубок в Сочи [04.10] (2015) HDTV 1080i от GeneralFilm

1013 | 173

9.04 ГБ

В этой теме нет новых непрочитанных сообщений. КВН-2015.Летний Кубок в Сочи [04.10] (2015) HDTVRip от GeneralFilm

10614 | 1652

1.49 ГБ

В этой теме нет новых непрочитанных сообщений. КВН - Летний кубок в Сочи [эфир от 21.09] (2012) SATRip

6 | 2

1.29 ГБ

В этой теме нет новых непрочитанных сообщений. КВН 2010. Летний кубок в Сочи (2010) SATRip

8 | 4

1.36 ГБ

В этой теме нет новых непрочитанных сообщений. КВН - Летний кубок в Сочи [Эфир от 29.09] (2013) HDTVRip

50 | 4

1.75 ГБ

В этой теме нет новых непрочитанных сообщений. КВН - Летний кубок в Сочи [Эфир от 29.09] (2013) HDTV 1080i

0 | 2

8.96 ГБ

В этой теме нет новых непрочитанных сообщений. КВН 2014. Летний кубок в Сочи [Эфир от 14.09] (2014) HDTV 1080i от MediaClub

119 | 8

11.39 ГБ




Вы не можете начинать темы
Вы не можете отвечать на сообщения
Вы не можете редактировать свои сообщения
Вы не можете удалять свои сообщения
Вы не можете добавлять вложения

Перейти:  
Для Мосгорсуда, Роскомнадзора и рекламодателей: mosgorsud-torrent[собачка]yandex.ru
Настройки
ppkBB3cker v.2 © 2008-2014 @ PPK
[ Time : 0.021s | 15 Queries | GZIP : Off ]
CGP [Extreme] output time : 0.00021s | 0 Queries | GZIP : Off

Торрент трекер RUTOR.IN, Не можете зайти на rutor.org? Какой новый адрес рутор? Какое зеркало рутор? Не работает rutor.org и зеркала? Тогда наш торрент специально для вас. Rutor.in неофициальное зеркало rutor. В случае если у Вас заблокирован rutor или вдруг Вы не можете на него зайти, то Вы без труда сможете скачать бесплатно и без рекламы последние новинки кино, игр, сериалов и прочего у нас, на Rutor.in. Не нужно использовать прокси, чтобы зайти на рутор, достаточно воспользоваться нашим ресурсом. Все новые фильмы, игры, сериалы, книги и музыка за 2013 и 2014 годы через торрент бесплатно. Скачивайте фильмы в хорошем качестве, игры для пк, xbox, playstation без регистрации. У нас вы найдете новые Зарубежные сериалы и Русские сериалы 2013, 2014, 2015 годов. Оставайтесь с нами, качайте любимые фильмы, игры, сериалы, книги и музыку.