img image001 image001 image001 image001 image001 image001 image001 image001 image001 image001 image001 image001 image001 image001 image001

Planets Sun Sun Sun
Статистика раздачи
Автор: Nickolas3434 | Размер: 1.53 ГБ | Добавлен: 11 окт 2015
Раздают: 148    Качают: 25
Скачать торрент
Скачать торрент
Описание торрента

СообщениеДобавлено: 11 окт 2015 



Информация о фильме
Название: Евгений Петросян - Улыбка длинною в жизнь (Фильм-1)
Год выхода: 2015
Жанр: Документальный

О фильме:
Цикл фильмов-концертов, состоящих из "100 фактов, артефактов, уток и прибауток из жизни Евгения Петросяна".

В первой ленте зрители увидят не только работы, с которых все начиналось, но и современные номера. А также узнают много интересных и неизвестных широкой публике фактов из жизни любимого артиста.
Страна: Россия
Продолжительность: 01:49:12
Перевод: Не требуется

Файл
Кодек: XviD
Качество: SATRip
Видео: 720x400 25.00fps 1800kbps
Звук: 48000Hz stereo 192kbps


Общее
Полное имя : D:Evgeniy.Petrosyan-Ulibka.Dlinnoyu.v.Zhizn.01.SATRip.avi
Формат : AVI
Формат/Информация : Audio Video Interleave
Размер файла : 1,53 Гбайт
Продолжительность : 1 ч. 49 м.
Общий поток : 2001 Кбит/сек
Программа кодирования : VirtualDubMod 1.5.10.3 | www.virtualdub-fr.org || (build 2550/release)
Библиотека кодирования : VirtualDubMod build 2550/release

Видео
Идентификатор : 0
Формат : MPEG-4 Visual
Профиль формата : Advanced Simple@L5
Параметр BVOP формата : 2
Параметр QPel формата : Нет
Параметр GMC формата : Без точки перехода
Параметр матрицы формата : Default (H.263)
Идентификатор кодека : XVID
Идентификатор кодека/Подсказка : XviD
Продолжительность : 1 ч. 49 м.
Битрейт : 1800 Кбит/сек
Ширина : 720 пикселей
Высота : 400 пикселей
Соотношение сторон : 16:9
Частота кадров : 25,000 кадров/сек
Цветовое пространство : YUV
Субдискретизация насыщенности : 4:2:0
Битовая глубина : 8 бит
Тип развёртки : Прогрессивная
Метод сжатия : С потерями
Бит/(Пиксели*Кадры) : 0.250
Размер потока : 1,37 Гбайт (90%)
Библиотека кодирования : XviD 1.2.1 (UTC 2008-12-04)

Аудио
Идентификатор : 1
Формат : AC-3
Формат/Информация : Audio Coding 3
Расширение режима : CM (complete main)
Параметр Endianness формата : Big
Идентификатор кодека : 2000
Продолжительность : 1 ч. 49 м.
Вид битрейта : Постоянный
Битрейт : 192 Кбит/сек
Каналы : 2 канала
Расположение каналов : Front: L R
Частота : 48,0 КГц
Метод сжатия : С потерями
Размер потока : 150 Мбайт (10%)
Выравнивание : Разделение по промежуткам
Продолжительность промежутка : 40 мс. (1,00 видеокадр)
Время предзагрузки промежутка : 500 мс.



Релиз от:



   Похожие торренты   Торрент   Размер 
В этой теме нет новых непрочитанных сообщений. Евгений Петросян - Улыбка длиною в жизнь [Фильм-2] (2015) SATRip

174 | 14

1.51 ГБ

В этой теме нет новых непрочитанных сообщений. Евгений Петросян (2010) SATRip

74 | 25

1.75 ГБ

В этой теме нет новых непрочитанных сообщений. Евгений Петросян - Большой бенефис 50 лет! [Часть 02] (2012) SATRip

320 | 10

1.65 ГБ

В этой теме нет новых непрочитанных сообщений. Евгений Петросян. 65 - юбилей опять! (2010) SATRip by RuUu

17 | 10

1.85 ГБ

В этой теме нет новых непрочитанных сообщений. Евгений Петросян - Большой бенефис 50 лет! [Часть 01] (2012) SATRip

20 | 7

2.1 ГБ

В этой теме нет новых непрочитанных сообщений. Евгений Петросян. 65 - юбилей опять! (2010) SATRemux by RuUu

24 | 11

2.61 ГБ

В этой теме нет новых непрочитанных сообщений. Евгений Петросян и Елена Степаненко - Страсти-мордасти (2005) 2хDVD5

3 | 201

7.16 ГБ




Вы не можете начинать темы
Вы не можете отвечать на сообщения
Вы не можете редактировать свои сообщения
Вы не можете удалять свои сообщения
Вы не можете добавлять вложения

Перейти:  
Для Мосгорсуда, Роскомнадзора и рекламодателей: mosgorsud-torrent[собачка]yandex.ru
 Вход
ppkBB3cker v.2 © 2008-2014 @ PPK
[ Time : 0.041s | 15 Queries | GZIP : Off ]

cron