img image001 image001 image001 image001 image001 image001 image001 image001 image001 image001 image001 image001 image001 image001 image001

Planets Sun Sun Sun
Статистика раздачи
Автор: PriZraK | Размер: 627.62 МБ | Добавлен: 28 авг 2016
Раздают: 427    Качают: 43
Скачать торрент
Скачать торрент
Описание торрента

СообщениеДобавлено: 28 авг 2016 

Информация о фильме
Оригинальное название: Comedy Баттл. Новый сезон
Жанр: ТВ-шоу, юмор, импровизация
Дата выхода в эфир: 26.08.2016
Ведущий: Павел Воля
Участники:Жюри, кандидаты в резиденты
Описание: В этом году участниками битвы станут все самые известные юмористы, когда-либо принимавшие участие в «Comedy Баттл», а также те, кто благодаря участию в шоу стали резидентами Comedy Club. Биться за главный приз с опытными юнитами будут молодые и талантливые новички. Победитель сезона получит 7 миллионов рублей, а такие огромные деньги не помешают никому: ни резиденту Comedy Club, ни начинающему, амбициозному дебютанту. Посмотрим, что возьмет верх: опыт или молодость.
Выпущено: ТНТ, "Comedy Club Production"
Продолжительность: 00:46:08
Язык: Русский
Файл
Кодек: XviD
Качество: WEB-DLRip
Видео: XviD, 1700 Кбит/с, 704x400
Аудио: AC3, 2 ch, 192 Кбит/с
Общее
Полное имя : D:ВидеоComedy Баттл (26.08.2016)WEB-DLRip by Vovan366(ExKinoRay).avi
Формат : AVI
Формат/Информация : Audio Video Interleave
Размер файла : 628 Мбайт
Продолжительность : 46 м.
Общий поток : 1902 Кбит/сек
Программа кодирования : VirtualDubMod 1.5.10.3 | www.virtualdub-fr.org || (build 2550/release)
Библиотека кодирования : VirtualDubMod build 2550/release
Видео
Идентификатор : 0
Формат : MPEG-4 Visual
Профиль формата : Advanced Simple@L5
Параметр BVOP формата : 2
Параметр QPel формата : Нет
Параметр GMC формата : Без точки перехода
Параметр матрицы формата : Выборочная
Идентификатор кодека : XVID
Идентификатор кодека/Подсказка : XviD
Продолжительность : 46 м.
Битрейт : 1700 Кбит/сек
Ширина : 704 пикселя
Высота : 400 пикселей
Соотношение сторон : 16:9
Частота кадров : 25,000 кадров/сек
Цветовое пространство : YUV
Субдискретизация насыщенности : 4:2:0
Битовая глубина : 8 бит
Тип развёртки : Прогрессивная
Метод сжатия : С потерями
Бит/(Пиксели*Кадры) : 0.241
Размер потока : 561 Мбайт (89%)
Библиотека кодирования : XviD 73
Аудио
Идентификатор : 1
Формат : AC-3
Формат/Информация : Audio Coding 3
Расширение режима : CM (complete main)
Параметр Endianness формата : Big
Идентификатор кодека : 2000
Продолжительность : 46 м.
Вид битрейта : Постоянный
Битрейт : 192 Кбит/сек
Каналы : 2 канала
Расположение каналов : Front: L R
Частота : 48,0 КГц
Битовая глубина : 16 бит
Метод сжатия : С потерями
Размер потока : 63,4 Мбайт (10%)
Выравнивание : Разделение по промежуткам
Продолжительность промежутка : 40 мс. (1,00 видеокадр)
Время предзагрузки промежутка : 500 мс.



Релиз от:
Rip by: Vovan366



   Похожие торренты   Торрент   Размер 
В этой теме нет новых непрочитанных сообщений. Comedy Баттл. Последний сезон [01 из XX] (2015) WEB-DLRip от qqss44

19 | 2

498.67 МБ

В этой теме нет новых непрочитанных сообщений. Comedy Баттл. Последний сезон [01 из XX] (2015) WEB-DLRip от qqss44

35 | 48

2.43 ГБ

В этой теме нет новых непрочитанных сообщений. Comedy Баттл. Последний сезон [01-21 из XX] (2015) WEB-DLRip от qqss44

12 | 11

10.23 ГБ

В этой теме нет новых непрочитанных сообщений. Comedy Баттл. Последний сезон [01 из XX] (2015) WEB-DLRip от qqss44

26 | 20

996.57 МБ

В этой теме нет новых непрочитанных сообщений. Comedy Баттл. Последний сезон [01 из XX] (2015) WEB-DLRip от qqss44

13 | 14

1.46 ГБ

В этой теме нет новых непрочитанных сообщений. Comedy Баттл. Последний сезон [01-30] (2015) WEB-DLRip от qqss44

36 | 24

14.61 ГБ

В этой теме нет новых непрочитанных сообщений. Comedy Баттл. Последний сезон [01 из XX] (2015) WEB-DLRip от qqss44

45 | 60

2.92 ГБ




Вы не можете начинать темы
Вы не можете отвечать на сообщения
Вы не можете редактировать свои сообщения
Вы не можете удалять свои сообщения
Вы не можете добавлять вложения

Перейти:  
Для Мосгорсуда, Роскомнадзора и рекламодателей: mosgorsud-torrent[собачка]yandex.ru
 Вход
ppkBB3cker v.2 © 2008-2014 @ PPK
[ Time : 0.061s | 16 Queries | GZIP : Off ]

cron