img image001 image001 image001 image001 image001 image001 image001 image001 image001 image001 image001 image001 image001 image001 image001

Planets Sun Sun Sun
Статистика раздачи
Автор: PriZraK | Размер: 1.74 ГБ | Добавлен: 19 сен 2016
Раздают: 67    Качают: 28
Скачать торрент
Скачать торрент
Описание торрента

СообщениеДобавлено: 19 сен 2016 

Информация о фильме
Оригинальное название: Однажды в России
Год выхода: 2016
Жанр: ТВ-шоу, юмор
Выпущено: Россия, ТНТ
Описание фильма:
Новый сезон самого острого сатирического шоу на российском телевидении. Новые, невероятные декорации, парадоксальные скетчи, яркие, сумасшедшие образы любимых актеров, а также обновленное музыкальное и графическое оформление.
Информация о файле:
Качество: WEB-DLRip
Видео: XviD, ~ 1500 Кбит/с, 704x400
Аудио: AС3, 2 ch, 192 Кбит/с
Продолжительность: 1 х ~ 00:50:00
Язык: Русский
Общее
Полное имя : D:ВидеоOdnazhdy.v.Rossii 4.2016.WEB-DLRip by Vovan366(ExKinoRay)Odnazhdy.v.Rossii 4.s01.2016.WEB-DLRip by Vovan366(ExKinoRay).avi
Формат : AVI
Формат/Информация : Audio Video Interleave
Размер файла : 583 Мбайт
Продолжительность : 47 м.
Общий поток : 1702 Кбит/сек
Программа кодирования : VirtualDubMod 1.5.10.3 | www.virtualdub-fr.org || (build 2550/release)
Библиотека кодирования : VirtualDubMod build 2550/release
Видео
Идентификатор : 0
Формат : MPEG-4 Visual
Профиль формата : Advanced Simple@L5
Параметр BVOP формата : 2
Параметр QPel формата : Нет
Параметр GMC формата : Без точки перехода
Параметр матрицы формата : Выборочная
Идентификатор кодека : XVID
Идентификатор кодека/Подсказка : XviD
Продолжительность : 47 м.
Битрейт : 1500 Кбит/сек
Ширина : 704 пикселя
Высота : 400 пикселей
Соотношение сторон : 16:9
Частота кадров : 25,000 кадров/сек
Цветовое пространство : YUV
Субдискретизация насыщенности : 4:2:0
Битовая глубина : 8 бит
Тип развёртки : Прогрессивная
Метод сжатия : С потерями
Бит/(Пиксели*Кадры) : 0.213
Размер потока : 514 Мбайт (88%)
Библиотека кодирования : XviD 73
Аудио
Идентификатор : 1
Формат : AC-3
Формат/Информация : Audio Coding 3
Расширение режима : CM (complete main)
Параметр Endianness формата : Big
Идентификатор кодека : 2000
Продолжительность : 47 м.
Вид битрейта : Постоянный
Битрейт : 192 Кбит/сек
Каналы : 2 канала
Расположение каналов : Front: L R
Частота : 48,0 КГц
Битовая глубина : 16 бит
Метод сжатия : С потерями
Размер потока : 65,8 Мбайт (11%)
Выравнивание : Разделение по промежуткам
Продолжительность промежутка : 40 мс. (1,00 видеокадр)
Время предзагрузки промежутка : 500 мс.

Когда раздача ведётся путём добавления новых серий, при каждом добавлении создётся новый торрент. Чтобы начать докачку новой серии, пользователям необходимо сделать следующее:
(1) остановить скачивание,
(2) удалить старый торрент у себя из клиента (старые серии удалять не надо),
(3) скачать новый торрент и запустить его у себя в клиенте вместо старого, при этом указать клиенту путь в старую папку, куда и должно происходить скачивание новых серий.
Ваш клиент при этом должен произвести хеширование (проверку) старой папки (если не производит сам - помогите ему сделать это), и будет докачивать только те серии, которых у вас ещё нет. Старые серии при этом не удаляются, а продолжают раздаваться!
Eсли вы уже удалили старые серии, то предотвратить повторную закачку старых серий можно, отжав галочку в соответсвующих местах при запуске нового торрента. По возможности, желательно не удалять старые серии как можно дольше, чтобы релизёр не столько продолжал раздавать старые серии, а смог сконцентрироваться на новых.





Релиз от:
Rip by: Vovan366



   Похожие торренты   Торрент   Размер 
В этой теме нет новых непрочитанных сообщений. Однажды в России [04x01] (2016) WEB-DLRip от ExKinoRay

84 | 88

2.9 ГБ

В этой теме нет новых непрочитанных сообщений. Однажды в России [01-04x01-52] (2014-2016) WEB-DLRip-AVC от ExKinoRay

15 | 6

34.76 ГБ

В этой теме нет новых непрочитанных сообщений. Однажды в России [02х01-23] (2015-2016) WEB-DLRip (720p) от ExKinoRay

53 | 173

25.9 ГБ

В этой теме нет новых непрочитанных сообщений. Однажды в России [04x01] (2016) WEB-DL 720p от qqss44

241 | 506

5.18 ГБ

В этой теме нет новых непрочитанных сообщений. Однажды в России [04x01] (2016) WEB-DL 720p от qqss44

157 | 180

6.46 ГБ

В этой теме нет новых непрочитанных сообщений. Однажды в России [01-02] (2014) WEB-DLRip-AVC от ExKinoRay

351 | 116

2.15 ГБ

В этой теме нет новых непрочитанных сообщений. Однажды в России [01-11] (2014) WEB-DLRip-AVC от ExKinoRay

130 | 56

6.07 ГБ




Вы не можете начинать темы
Вы не можете отвечать на сообщения
Вы не можете редактировать свои сообщения
Вы не можете удалять свои сообщения
Вы не можете добавлять вложения

Перейти:  
Для Мосгорсуда, Роскомнадзора и рекламодателей: mosgorsud-torrent[собачка]yandex.ru
 Вход
ppkBB3cker v.2 © 2008-2014 @ PPK
[ Time : 0.108s | 15 Queries | GZIP : Off ]

Торрент трекер RUTOR.IN, Не можете зайти на rutor.org? Какой новый адрес рутор? Какое зеркало рутор? Не работает rutor.org и зеркала? Тогда наш торрент специально для вас. Rutor.in неофициальное зеркало rutor. В случае если у Вас заблокирован rutor или вдруг Вы не можете на него зайти, то Вы без труда сможете скачать бесплатно и без рекламы последние новинки кино, игр, сериалов и прочего у нас, на Rutor.in. Не нужно использовать прокси, чтобы зайти на рутор, достаточно воспользоваться нашим ресурсом. Все новые фильмы, игры, сериалы, книги и музыка за 2013 и 2014 годы через торрент бесплатно. Скачивайте фильмы в хорошем качестве, игры для пк, xbox, playstation без регистрации. У нас вы найдете новые Зарубежные сериалы и Русские сериалы 2013, 2014, 2015 годов. Оставайтесь с нами, качайте любимые фильмы, игры, сериалы, книги и музыку.