img image001 image001 image001 image001 image001 image001 image001 image001 image001 image001 image001 image001 image001 image001 image001

Planets Sun Sun Sun
Статистика раздачи
Автор: PriZraK | Размер: 9.42 ГБ | Добавлен: 29 сен 2016
Раздают: 4    Качают: 0
Скачать торрент
Скачать торрент
Описание торрента

СообщениеДобавлено: 29 сен 2016 


Дата/Год выпуска: 2015-2016
Страна: Россия
Жанр: Политико-юмористическое шоу
Продолжительность: ~ 00:20:00
Перевод: Не требуется
Русские субтитры: нет
Ведущий: Даниель Кайгермазов
Описание: Mount Show - информационно-юмористический и развлекательно-аналитический проект о том, что волнует всех и каждого в нашей стране.
Политика, культура, общество – под прицелом нашего внимания. Маунт-шоу - все самое актуальное, интересное с высоты птичьего полета, потому что нам с гор виднее.
Приятного просмотра и здорового смеха.
качество: WEBRip
формат: AVI
Видео: 1280x720(16:9),25.000 FPS,Advanced Video Codec AVC ~1 328 kb/s
Аудио: 44.1 kHz, Mp3 Dolby Digital, 2/0 (L,R) ch, ~128 kbps
Серия 01
Серия 02
Серия 03
(04) Прибалтийская паранойя
(05) Агенты Кремля они везде!
(06) Мова и Афро-Украинский союз
(07) Что там у москалей Или как хохлы парад смотрели
(08) Пошла Украина с молотка
(09) Мишка политический гастарбайтер
(010) Вселенная Порошенко
(011) Обамка на выданье
(012) Путин хочет меня убить
(013) Пушкин - агент кремля
(014) Королева оборонсервиса и ее подданные
(015) Мордор и братство шоколадного Эльфа
(016) Барин Марий Эл и его крепостные
(017) Яценюк и полная зрадница
(018) Порошенко Европе без Украины капец
(019) Сенатор Маккейн с любовью к России
(020) Горе-вояки Пентагона и предвыборная клоунада США
(021) Империя наносит хреновый удар
(022) Обамка пугает республиканцев Путиным
(023) Злобная старушка Клинтон о России
(024) Просчет турецкого султана
(025) На воре и феска горит
(026) У госдеповской истерички бомбануло
(027) Диктатор Аладдин должен уйти! Свободу Аграбе!
(028) Порошенко король фотошопа
(029) США выбирают президента для Путина
(030) Коррумпированный Путин Какие ваши доказательства
(031) Украина и интеллект Яценюка
(032) Патриарх и Папа 1000 лет не виделись
(033) Украина це Россия
(034) Саратовский iPhone 7
(035) На лабутенах и в охренительных трусах
(036) Трамп! Просто Дональд Трамп!
(037) Ядерный Ким Чен Ын
(038) Цыганский бунт!
(039) Приключения Обамы на Кубе
(040) Хиллари Клинтон соучредитель ИГИЛ
(041) Сеня всё Отставка Яценюка
(042) Шуганутый эсминец Дональд Кук
(043) Эпичное десантирование горе-вояк США в Германии
(044) Бракованная демократия США
(045) Папа Римский и георгиевская ленточка
(046) Как теперь правильно на Евровидение или в Евровидение
(047) Игра престолов и депутат Петров
(048) Савченко и два литра водки
(049) Савченко - агент Кремля
(050) Подлодка Путина или как сходят с ума британские СМИ
(051) Российские болельщики - агенты Кремля
(052) Brexit - во всем виноват Путин
(053) Как Порошенко НАТО учил воевать
(054) Pokemon go и бредни депутата Петрова
(055) Медведев и его твиттер
(056) Хиллари Клинтон и Тереза Мэй - две злобные ведьмы
(057) Дональд Трамп - агент Путина
(058) Ким Чен Ын и ядерный удар по США
(059) Приключения ПАРНАС на Украине
(060) Клинтон Путин - крестный отец
(061) Как Обаму исключительно принимали на G20
(062) Ким Чен Ын рванул новую ядерную бомбу
(063) Путин и Трамп отравили Хиллари Клинтон

Код:
General
Complete name               : D:Мои документыVideosПередачиMount ShowВыпуски 51-60(055) Медведев и его твиттер.avi
Format                      : AVI
Format/Info                 : Audio Video Interleave
File size                   : 179 MiB
Duration                    : 17 min
Overall bit rate            : 1 466 kb/s
Writing application         : VirtualDubMod 1.5.10.3 | www.virtualdub-fr.org || (build 2550/release)
Writing library             : VirtualDubMod build 2550/release
Video
ID                          : 0
Format                      : AVC
Format/Info                 : Advanced Video Codec
Format profile              : Main@L3.1
Format settings, CABAC      : Yes
Format settings, ReFrames   : 3 frames
Codec ID                    : h264
Duration                    : 17 min
Bit rate                    : 1 328 kb/s
Width                       : 1 280 pixels
Height                      : 720 pixels
Display aspect ratio        : 16:9
Frame rate mode             : Variable
Frame rate                  : 25.000 FPS
Color space                 : YUV
Chroma subsampling          : 4:2:0
Bit depth                   : 8 bits
Scan type                   : Progressive
Bits/(Pixel*Frame)          : 0.058
Stream size                 : 162 MiB (91%)
Color range                 : Limited
Color primaries             : BT.709
Transfer characteristics    : BT.709
Matrix coefficients         : BT.709
Audio
ID                          : 1
Format                      : MPEG Audio
Format version              : Version 1
Format profile              : Layer 3
Codec ID                    : 55
Codec ID/Hint               : MP3
Duration                    : 17 min
Bit rate mode               : Constant
Bit rate                    : 128 kb/s
Channel(s)                  : 2 channels
Sampling rate               : 44.1 kHz
Compression mode            : Lossy
Stream size                 : 15.6 MiB (9%)
Alignment                   : Split accross interleaves
Interleave, duration        : 40  ms (1.00 video frame)
Interleave, preload duratio : 500  ms
Writing library             : LAME3.99r
Encoding settings           : -m s -V 4 -q 2 -lowpass 17 -b 128
 

Внимание! Раздача ведётся путём добавления новых серий




   Похожие торренты   Торрент   Размер 
В этой теме нет новых непрочитанных сообщений. Mount Show - Все выпуски [01-57] (2015-2016) WEBRip 720p

11 | 3

8.75 ГБ

В этой теме нет новых непрочитанных сообщений. Mount Show - Все выпуски [01-64] (2015-2016) WEBRip 720p

4 | 28

9.58 ГБ

В этой теме нет новых непрочитанных сообщений. Mount Show - Все выпуски [01-62] (2015-2016) WEBRip 720p

4 | 13

9.27 ГБ

В этой теме нет новых непрочитанных сообщений. Mount Show - Все выпуски [01-61] (2015-2016) WEBRip 720p

2 | 4

9.33 ГБ

В этой теме нет новых непрочитанных сообщений. Mount Show - Все выпуски [01-59] (2015-2016) WEBRip 720p

10 | 17

9.01 ГБ

В этой теме нет новых непрочитанных сообщений. Mount Show - Все выпуски [01-60] (2015-2016) WEBRip 720p

0 | 3

9.18 ГБ

В этой теме нет новых непрочитанных сообщений. Mount Show - Все выпуски [01-58] (2015-2016) WEBRip 720p

4 | 6

8.87 ГБ




Вы не можете начинать темы
Вы не можете отвечать на сообщения
Вы не можете редактировать свои сообщения
Вы не можете удалять свои сообщения
Вы не можете добавлять вложения

Перейти:  
Для Мосгорсуда, Роскомнадзора и рекламодателей: mosgorsud-torrent[собачка]yandex.ru
 Вход
ppkBB3cker v.2 © 2008-2014 @ PPK
[ Time : 0.043s | 14 Queries | GZIP : Off ]

Торрент трекер RUTOR.IN, Не можете зайти на rutor.org? Какой новый адрес рутор? Какое зеркало рутор? Не работает rutor.org и зеркала? Тогда наш торрент специально для вас. Rutor.in неофициальное зеркало rutor. В случае если у Вас заблокирован rutor или вдруг Вы не можете на него зайти, то Вы без труда сможете скачать бесплатно и без рекламы последние новинки кино, игр, сериалов и прочего у нас, на Rutor.in. Не нужно использовать прокси, чтобы зайти на рутор, достаточно воспользоваться нашим ресурсом. Все новые фильмы, игры, сериалы, книги и музыка за 2013 и 2014 годы через торрент бесплатно. Скачивайте фильмы в хорошем качестве, игры для пк, xbox, playstation без регистрации. У нас вы найдете новые Зарубежные сериалы и Русские сериалы 2013, 2014, 2015 годов. Оставайтесь с нами, качайте любимые фильмы, игры, сериалы, книги и музыку.