img image001 image001 image001 image001 image001 image001 image001 image001 image001 image001 image001 image001 image001 image001 image001

Planets Sun Sun Sun
Статистика раздачи
Автор: PriZraK | Размер: 668.34 МБ | Добавлен: 29 сен 2016
Раздают: 3    Качают: 6
Скачать торрент
Скачать торрент
Описание торрента

СообщениеДобавлено: 29 сен 2016 

Информация о фильме
Оригинальное название: Comedy Woman. Новый формат
Жанр: Юмористическое шоу
Дата выхода в эфир: 23.09.2016
Ведущий: Наталья Еприкян
В ролях: Наталья Еприкян, Екатерина Скулкина, Екатерина Варнава, Мария Кравченко, Полина Сибагатуллина, Татьяна Морозова, Надежда Сысоева, Надежда Ангарская, Марина Федункив
Описание: Развлекательное шоу, в котором пресловутая женская логика оказывается как нельзя кстати. Девушки с выдающимся юмором и не менее выдающимися формами не позволят заскучать самому закоренелому снобу и накажут смехом даже законченного шовиниста. Сomedy Woman - место, в котором приятно побывать и не стыдно об этом вспомнить! Особенно зажигательные танцы, очень смешные шутки, а также жизненные истории, в которых каждая дама точно узнает себя и своих подруг.
Выпущено: ТНТ, "Comedy Club Production"
Продолжительность: 00:49:06
Язык: Русский
Файл
Кодек: XviD
Качество: WEB-DLRip
Видео: XviD, 1700 Кбит/с, 704x400
Аудио: AC3, 2 ch, 192 Кбит/с
Общее
Полное имя : D:ВидеоComedy Woman.(23.09.2016)WEB-DLRip by Vovan366(ExKinoRay).avi
Формат : AVI
Формат/Информация : Audio Video Interleave
Размер файла : 668 Мбайт
Продолжительность : 49 м.
Общий поток : 1903 Кбит/сек
Программа кодирования : VirtualDubMod 1.5.10.3 | www.virtualdub-fr.org || (build 2550/release)
Библиотека кодирования : VirtualDubMod build 2550/release
Видео
Идентификатор : 0
Формат : MPEG-4 Visual
Профиль формата : Advanced Simple@L5
Параметр BVOP формата : 2
Параметр QPel формата : Нет
Параметр GMC формата : Без точки перехода
Параметр матрицы формата : Выборочная
Идентификатор кодека : XVID
Идентификатор кодека/Подсказка : XviD
Продолжительность : 49 м.
Битрейт : 1701 Кбит/сек
Ширина : 704 пикселя
Высота : 400 пикселей
Соотношение сторон : 16:9
Частота кадров : 25,000 кадров/сек
Цветовое пространство : YUV
Субдискретизация насыщенности : 4:2:0
Битовая глубина : 8 бит
Тип развёртки : Прогрессивная
Метод сжатия : С потерями
Бит/(Пиксели*Кадры) : 0.242
Размер потока : 597 Мбайт (89%)
Библиотека кодирования : XviD 73
Аудио
Идентификатор : 1
Формат : AC-3
Формат/Информация : Audio Coding 3
Расширение режима : CM (complete main)
Параметр Endianness формата : Big
Идентификатор кодека : 2000
Продолжительность : 49 м.
Вид битрейта : Постоянный
Битрейт : 192 Кбит/сек
Каналы : 2 канала
Расположение каналов : Front: L R
Частота : 48,0 КГц
Битовая глубина : 16 бит
Метод сжатия : С потерями
Размер потока : 67,4 Мбайт (10%)
Выравнивание : Разделение по промежуткам
Продолжительность промежутка : 40 мс. (1,00 видеокадр)
Время предзагрузки промежутка : 500 мс.



Релиз от:
Rip by: Vovan366



   Похожие торренты   Торрент   Размер 
В этой теме нет новых непрочитанных сообщений. Comedy Woman (эфир от 2016.09.09) (2016) WEB-DLRip от ExKinoRay

112 | 7

678.37 МБ

В этой теме нет новых непрочитанных сообщений. Comedy Woman (эфир от 2016.09.16) (2016) WEB-DLRip от ExKinoRay

303 | 11

678.52 МБ

В этой теме нет новых непрочитанных сообщений. Comedy Woman [Эфир 01.11] (2013) WEB-DLRip

4 | 3

542.95 МБ

В этой теме нет новых непрочитанных сообщений. Comedy Woman [Эфир 27.09] (2013) WEB-DLRip

6 | 3

631.95 МБ

В этой теме нет новых непрочитанных сообщений. Comedy Woman [Эфир 11.10] (2013) WEB-DLRip

10 | 5

562.88 МБ

В этой теме нет новых непрочитанных сообщений. Comedy Woman [Эфир 30.04] (2014) WEB-DLRip

659 | 104

628.56 МБ

В этой теме нет новых непрочитанных сообщений. Comedy Woman [Эфир 21.02] (2014) WEB-DLRip

158 | 57

579.73 МБ




Вы не можете начинать темы
Вы не можете отвечать на сообщения
Вы не можете редактировать свои сообщения
Вы не можете удалять свои сообщения
Вы не можете добавлять вложения

Перейти:  
Для Мосгорсуда, Роскомнадзора и рекламодателей: mosgorsud-torrent[собачка]yandex.ru
 Вход
ppkBB3cker v.2 © 2008-2014 @ PPK
[ Time : 0.037s | 16 Queries | GZIP : Off ]

cron