img image001 image001 image001 image001 image001 image001 image001 image001 image001 image001 image001 image001 image001 image001 image001

Planets Sun Sun Sun
Статистика раздачи
Автор: Снежана | Размер: 403.03 МБ | Добавлен: 03 авг 2013
Раздают: 2    Качают: 2
Скачать торрент
Скачать торрент
Описание торрента

СообщениеДобавлено: 03 авг 2013 

#77

Год выпуска: 2013
Страна: Россия
Жанр: Документальный
Продолжительность: 00:42:09
Перевод: Не требуется
Режиссер: Иван Тамаров

В ролях: Наталья Девятова, Владислав Плесовских, Игорь Мозжегоров, Алла Виноградова, Ирина Радомира.

Описание: Мы с друзьями создаем поселение «Росичи», состоящее из родовых поместий. Наше поселение расположено в красивом месте Тюменской области Ярковский район д. Никитино. Рядом небольшой сосновый бор и смешанные леса, где есть грибы, ягоды. В 1,5 км. протекает река Тура – Творца Устремлениями Радующая. Возле поселения протекает маленькая речушка Никитина. Мы её расчистим, углубим, создадим красивое озеро с чистой живой водой. Вокруг озера будут расти плодовые и лесные деревья и кустарники, в их ветвях будет многоптиц, которые наполнят окружающее пространство своим весёлым щебетом.

Дополнительно: Группа вКонтакте

качество: CAMRip
формат: AVI
видеокодек: XviD
аудиокодек: MP3
Видео: 704x528 (4:3), 1200 kbps, 25 fps
Аудио: 128 kbps, 44.1 Khz, 2 ch

General
Complete name : D:Поселение Росичи.avi
Format : AVI
Format/Info : Audio Video Interleave
File size : 403 MiB
Duration : 42mn 9s
Overall bit rate : 1 336 Kbps

Video
ID : 0
Format : MPEG-4 Visual
Format profile : Advanced Simple@L5
Format settings, BVOP : No
Format settings, QPel : No
Format settings, GMC : No warppoints
Format settings, Matrix : Default (H.263)
Codec ID : XVID
Codec ID/Hint : XviD
Duration : 42mn 9s
Bit rate : 1 201 Kbps
Width : 704 pixels
Height : 528 pixels
Display aspect ratio : 4:3
Frame rate : 25.000 fps
Color space : YUV
Chroma subsampling : 4:2:0
Bit depth : 8 bits
Scan type : Progressive
Compression mode : Lossy
Bits/(Pixel*Frame) : 0.129
Stream size : 362 MiB (90%)
Writing library : XviD 62

Audio
ID : 1
Format : MPEG Audio
Format version : Version 1
Format profile : Layer 3
Codec ID : 55
Codec ID/Hint : MP3
Duration : 42mn 9s
Bit rate mode : Constant
Bit rate : 128 Kbps
Channel(s) : 2 channels
Sampling rate : 44.1 KHz
Compression mode : Lossy
Stream size : 38.6 MiB (10%)
Alignment : Split accross interleaves
Interleave, duration : 80 ms (2.00 video frames)




   Похожие торренты   Торрент   Размер 
В этой теме нет новых непрочитанных сообщений. Стивен Кинг - Поселение Иерусалим (2013) MP3

30 | 5

98.7 МБ

В этой теме нет новых непрочитанных сообщений. Нации: Поселение Викингов / Cultures: The Discovery of Vinland (2000) PC

14 | 4

162.32 МБ

В этой теме нет новых непрочитанных сообщений. Нации: Поселение Викингов / Cultures: The Discovery of Vinland (2000) PC

39 | 4

740.96 МБ

В этой теме нет новых непрочитанных сообщений. Нации: Поселение Викингов / Cultures: The Discovery of Vinland (2000) PC | RePack от Pilotus

5 | 3

228 МБ

В этой теме нет новых непрочитанных сообщений. Поселение "Славное" - фильм из о Родовых Поместьях России (2008) DVDRip

0 | 2

675.76 МБ

В этой теме нет новых непрочитанных сообщений. РЭД 2 / Red 2 (2013) CAMRip

34 | 2

1.37 ГБ

В этой теме нет новых непрочитанных сообщений. Обливион / Oblivion (2013) CAMRip

19 | 3

2.05 ГБ




Вы не можете начинать темы
Вы не можете отвечать на сообщения
Вы не можете редактировать свои сообщения
Вы не можете удалять свои сообщения
Вы не можете добавлять вложения

Перейти:  
Для Мосгорсуда, Роскомнадзора и рекламодателей: mosgorsud-torrent[собачка]yandex.ru
 Вход
ppkBB3cker v.2 © 2008-2014 @ PPK
[ Time : 0.037s | 14 Queries | GZIP : Off ]

Торрент трекер RUTOR.IN, Не можете зайти на rutor.org? Какой новый адрес рутор? Какое зеркало рутор? Не работает rutor.org и зеркала? Тогда наш торрент специально для вас. Rutor.in неофициальное зеркало rutor. В случае если у Вас заблокирован rutor или вдруг Вы не можете на него зайти, то Вы без труда сможете скачать бесплатно и без рекламы последние новинки кино, игр, сериалов и прочего у нас, на Rutor.in. Не нужно использовать прокси, чтобы зайти на рутор, достаточно воспользоваться нашим ресурсом. Все новые фильмы, игры, сериалы, книги и музыка за 2013 и 2014 годы через торрент бесплатно. Скачивайте фильмы в хорошем качестве, игры для пк, xbox, playstation без регистрации. У нас вы найдете новые Зарубежные сериалы и Русские сериалы 2013, 2014, 2015 годов. Оставайтесь с нами, качайте любимые фильмы, игры, сериалы, книги и музыку.