img image001 image001 image001 image001 image001 image001 image001 image001 image001 image001 image001 image001 image001 image001 image001

Planets Sun Sun Sun
Статистика раздачи
Автор: Снежана | Размер: 898.64 МБ | Добавлен: 03 авг 2013
Раздают: 9    Качают: 5
Скачать торрент
Скачать торрент
Описание торрента

СообщениеДобавлено: 03 авг 2013 

#77

Страна: Россия
Жанр: Документальный, рыбалка
Тип раздаваемого материала: Видеоурок
Продолжительность: 00:59:20
Год выпуска: 2013
Выпущено: ООО "Фиш-Информ"
Режиссер: Алексей Фадеев
В ролях: Владимир Струев, Алексей Шанин, Игорь Гавриличев, Алексей Вьюнов, А. Королев, Х. Мураками, А. Мишин, А. Соглаев
Язык: Русский
Перевод: Не требуется

Описание: Очередной выпуск видеоприложения к журналу "Рыбачьте с нами" за июль 2013 года.
Содержание:
Весенняя щука на реке Усманка в Воронежской области
Чемпионат мира по ловле рыбы с спиннингом с берега "Чехия-2013"
Рыболовная выставка в Осаке-4
Рыболовная выставка в Осаке-5
Белорусские шуткари
Рыболовный магазин на диване.

Качество: DVDRip
Формат: AVI
Видео кодек: XviD
Аудио кодек: AC3
Видео: XviD, 704x512(1.375), 25 fps ~ 1787 Kbps avg, 0.198 bit/pixel
Аудио: AC3, 48 KHz 2 ch ~ 320 Kb/s
Общее
Полное имя : Q:TorFRybachte.s.nami.07.2013(47).DVDRip.avi
Формат : AVI
Формат/Информация : Audio Video Interleave
Размер файла : 899 Мбайт
Продолжительность : 59 м.
Общий поток : 2116 Кбит/сек
Программа кодирования : FairUse Wizard - http://fairusewizard.com
Библиотека кодирования : The best and REALLY easy backup tool

Видео
Идентификатор : 0
Формат : MPEG-4 Visual
Профиль формата : Advanced Simple@L5
Параметр BVOP формата : 2
Параметр QPel формата : Нет
Параметр GMC формата : Без точки перехода
Параметр матрицы формата : Default (H.263)
Режим смешивания : Сжатый битовый поток
Идентификатор кодека : XVID
Идентификатор кодека/Подсказка : XviD
Продолжительность : 59 м.
Битрейт : 1787 Кбит/сек
Ширина : 704 пикселя
Высота : 512 пикселей
Соотношение сторон : 1,375
Частота кадров : 25,000 кадров/сек
Цветовое пространство : YUV
Субдискретизация насыщенности : 4:2:0
Битовая глубина : 8 бит
Тип развёртки : Прогрессивная
Метод сжатия : С потерями
Бит/(Пиксели*Кадры) : 0.198
Размер потока : 759 Мбайт (84%)
Библиотека кодирования : XviD 1.2.1 (UTC 2008-12-04)

Аудио
Идентификатор : 1
Формат : AC-3
Формат/Информация : Audio Coding 3
Расширение режима : CM (complete main)
Идентификатор кодека : 2000
Продолжительность : 59 м.
Вид битрейта : Постоянный
Битрейт : 320 Кбит/сек
Каналы : 2 канала
Расположение каналов : Front: L R
Частота : 48,0 КГц
Битовая глубина : 16 бит
Метод сжатия : С потерями
Размер потока : 136 Мбайт (15%)
Выравнивание : Разделение по промежуткам
Продолжительность промежутка : 40 мс. (1,00 видеокадр)
Время предзагрузки промежутка : 500 мс.














   Похожие торренты   Торрент   Размер 
В этой теме нет новых непрочитанных сообщений. Рыбачьте с нами. Видеоприложение. Выпуск №35. Июль (2012) DVDRip

5 | 4

1.36 ГБ

В этой теме нет новых непрочитанных сообщений. Рыбачьте с нами. Видеоприложение №7. Июль (2016) DVDRip

27 | 1

565.58 МБ

В этой теме нет новых непрочитанных сообщений. Рыбачьте с нами. Видеоприложение. Выпуск №45. Май (2013) DVDRip

8 | 2

1.17 ГБ

В этой теме нет новых непрочитанных сообщений. Рыбачьте с нами. Видеоприложение. Выпуск №52. Декабрь (2013) DVDRip

7 | 10

1.75 ГБ

В этой теме нет новых непрочитанных сообщений. Рыбачьте с нами. Видеоприложение. Выпуск №42. Февраль (2013) DVDRip

4 | 8

1.28 ГБ

В этой теме нет новых непрочитанных сообщений. Рыбачьте с нами. Видеоприложение. Выпуск №46. Июнь (2013) DVDRip

12 | 5

828.57 МБ

В этой теме нет новых непрочитанных сообщений. Рыбачьте с нами. Видеоприложение. Выпуск №43. Март (2013) DVDRip

13 | 4

1.27 ГБ




Вы не можете начинать темы
Вы не можете отвечать на сообщения
Вы не можете редактировать свои сообщения
Вы не можете удалять свои сообщения
Вы не можете добавлять вложения

Перейти:  
Для Мосгорсуда, Роскомнадзора и рекламодателей: mosgorsud-torrent[собачка]yandex.ru
 Вход
ppkBB3cker v.2 © 2008-2014 @ PPK
[ Time : 0.037s | 15 Queries | GZIP : Off ]

cron