img image001 image001 image001 image001 image001 image001 image001 image001 image001 image001 image001 image001 image001 image001 image001

Planets Sun Sun Sun
Статистика раздачи
Автор: Снежана | Размер: 1.27 ГБ | Добавлен: 03 авг 2013
Раздают: 5    Качают: 4
Скачать торрент
Скачать торрент
Описание торрента

СообщениеДобавлено: 03 авг 2013 

#77

Страна: Россия
Жанр: Документальный, рыбалка
Тип раздаваемого материала: Видеоурок
Продолжительность: 01:25:05
Год выпуска: 2013
Выпущено: ООО "Фиш-Информ"
Режиссер: Алексей Фадеев
В ролях: Владимир Струев, Алексей Шанин, Игорь Гавриличев, Алексей Вьюнов, А. Королев, Х. Мураками, Михаель Цамматаро
Язык: Русский
Перевод: Не требуется

Описание: Очередной выпуск видеоприложения к журналу "Рыбачьте с нами" за август 2013 года.
Содержание:
Мастер класс с Михаелем Цамматаро.
Рыболовная выставка в Осаке-5 (Мегабасс).
Белорусские шуткари.
На озере Бива с Алексеем Шаниным.
Рыболовный магазин на диване.

Качество: DVDRip
Формат: AVI
Видео кодек: XviD
Аудио кодек: AC3
Видео: XviD, 704x512 (1.375), 25 fps ~ 1930 Kbps avg, 0.214 bit/pixel
Аудио: AC3, 48 KHz 2 ch ~ 192 Kb/s

Общее
Полное имя : Q:TorFRybachte.s.nami.08.2013(48).DVDRip.avi
Формат : AVI
Формат/Информация : Audio Video Interleave
Размер файла : 1,27 Гбайт
Продолжительность : 1 ч. 25 м.
Общий поток : 2133 Кбит/сек
Программа кодирования : FairUse Wizard - http://fairusewizard.com
Библиотека кодирования : The best and REALLY easy backup tool

Видео
Идентификатор : 0
Формат : MPEG-4 Visual
Профиль формата : Advanced Simple@L5
Параметр BVOP формата : 2
Параметр QPel формата : Нет
Параметр GMC формата : Без точки перехода
Параметр матрицы формата : Default (H.263)
Режим смешивания : Сжатый битовый поток
Идентификатор кодека : XVID
Идентификатор кодека/Подсказка : XviD
Продолжительность : 1 ч. 25 м.
Битрейт : 1931 Кбит/сек
Ширина : 704 пикселя
Высота : 512 пикселей
Соотношение сторон : 1,375
Частота кадров : 25,000 кадров/сек
Цветовое пространство : YUV
Субдискретизация насыщенности : 4:2:0
Битовая глубина : 8 бит
Тип развёртки : Прогрессивная
Метод сжатия : С потерями
Бит/(Пиксели*Кадры) : 0.214
Размер потока : 1,15 Гбайт (91%)
Библиотека кодирования : XviD 1.2.1 (UTC 2008-12-04)

Аудио
Идентификатор : 1
Формат : AC-3
Формат/Информация : Audio Coding 3
Расширение режима : CM (complete main)
Идентификатор кодека : 2000
Продолжительность : 1 ч. 25 м.
Вид битрейта : Постоянный
Битрейт : 192 Кбит/сек
Каналы : 2 канала
Расположение каналов : Front: L R
Частота : 48,0 КГц
Битовая глубина : 16 бит
Метод сжатия : С потерями
Размер потока : 117 Мбайт (9%)
Выравнивание : Разделение по промежуткам
Продолжительность промежутка : 40 мс. (1,00 видеокадр)
Время предзагрузки промежутка : 500 мс.






   Похожие торренты   Торрент   Размер 
В этой теме нет новых непрочитанных сообщений. Рыбачьте с нами. Видеоприложение. Выпуск №36. Август (2012) DVDRip

22 | 6

1.27 ГБ

В этой теме нет новых непрочитанных сообщений. Рыбачьте с нами. Видеоприложение. Выпуск №45. Май (2013) DVDRip

8 | 2

1.17 ГБ

В этой теме нет новых непрочитанных сообщений. Рыбачьте с нами. Видеоприложение. Выпуск №47. Июль (2013) DVDRip

9 | 5

898.64 МБ

В этой теме нет новых непрочитанных сообщений. Рыбачьте с нами. Видеоприложение. Выпуск №52. Декабрь (2013) DVDRip

7 | 10

1.75 ГБ

В этой теме нет новых непрочитанных сообщений. Рыбачьте с нами. Видеоприложение. Выпуск №41. Январь (2013) DVDRip

3 | 4

1.36 ГБ

В этой теме нет новых непрочитанных сообщений. Рыбачьте с нами. Видеоприложение. Выпуск №50. Октябрь (2013) DVDRip

13 | 7

998.11 МБ

В этой теме нет новых непрочитанных сообщений. Рыбачьте с нами. Видеоприложение. Выпуск №42. Февраль (2013) DVDRip

4 | 8

1.28 ГБ




Вы не можете начинать темы
Вы не можете отвечать на сообщения
Вы не можете редактировать свои сообщения
Вы не можете удалять свои сообщения
Вы не можете добавлять вложения

Перейти:  
Для Мосгорсуда, Роскомнадзора и рекламодателей: mosgorsud-torrent[собачка]yandex.ru
 Вход
ppkBB3cker v.2 © 2008-2014 @ PPK
[ Time : 0.026s | 17 Queries | GZIP : Off ]

Торрент трекер RUTOR.IN, Не можете зайти на rutor.org? Какой новый адрес рутор? Какое зеркало рутор? Не работает rutor.org и зеркала? Тогда наш торрент специально для вас. Rutor.in неофициальное зеркало rutor. В случае если у Вас заблокирован rutor или вдруг Вы не можете на него зайти, то Вы без труда сможете скачать бесплатно и без рекламы последние новинки кино, игр, сериалов и прочего у нас, на Rutor.in. Не нужно использовать прокси, чтобы зайти на рутор, достаточно воспользоваться нашим ресурсом. Все новые фильмы, игры, сериалы, книги и музыка за 2013 и 2014 годы через торрент бесплатно. Скачивайте фильмы в хорошем качестве, игры для пк, xbox, playstation без регистрации. У нас вы найдете новые Зарубежные сериалы и Русские сериалы 2013, 2014, 2015 годов. Оставайтесь с нами, качайте любимые фильмы, игры, сериалы, книги и музыку.
cron