img image001 image001 image001 image001 image001 image001 image001 image001 image001 image001 image001 image001 image001 image001 image001

Planets Sun Sun Sun
Статистика раздачи
Автор: PriZraK | Размер: 1.75 ГБ | Добавлен: 16 фев 2014
Раздают: 7    Качают: 10
Скачать торрент
Скачать торрент
Описание торрента

СообщениеДобавлено: 16 фев 2014 

Страна: Россия
Жанр: Документальный, рыбалка
Тип раздаваемого материала: Видеоурок
Продолжительность: 01:59:40
Год выпуска: 2013
Выпущено: ООО "Фиш-Информ"
Режиссер: Алексей Фадеев
В ролях: Алексей Фадеев, Александр Королев, Владислав Шкопп, Александр Егоров, Владимир Струев, Анатолий Сапруненко, Игорь Гавриличев и др.
Язык: Русский
Перевод: Не требуется

Очередной выпуск видеоприложения к журналу "Рыбачьте с нами" за Декабрь 2013 года.
В выпуске:
Ловля сома и сазана на Нижней Волге (Иголкинский банк-2)
Уха
Первый лед (ротан)
"Trout Union Cup 2013"
Стритфишинг или оккапари
Рыболовный магазин на диване.

Качество: DVDRip
Формат: AVI
Видео кодек: XviD
Аудио кодек: AC3
Видео: XviD, 704x512 (1.375), 25 fps ~ 1770 Kbps avg, 0.196 bit/pixel
Аудио: AC3, 48 KHz 2 ch ~ 320 Kb/s

Общее
Полное имя : Q:TorFRybachte_S_Nami[Vypusk_52]DVDRip.avi
Формат : AVI
Формат/Информация : Audio Video Interleave
Размер файла : 1,75 Гбайт
Продолжительность : 1 ч. 59 м.
Общий поток : 2098 Кбит/сек
Программа кодирования : FairUse Wizard - http://fairusewizard.com
Библиотека кодирования : The best and REALLY easy backup tool

Видео
Идентификатор : 0
Формат : MPEG-4 Visual
Профиль формата : Advanced Simple@L5
Параметр BVOP формата : 2
Параметр QPel формата : Нет
Параметр GMC формата : Без точки перехода
Параметр матрицы формата : Default (H.263)
Режим смешивания : Сжатый битовый поток
Идентификатор кодека : XVID
Идентификатор кодека/Подсказка : XviD
Продолжительность : 1 ч. 59 м.
Битрейт : 1769 Кбит/сек
Ширина : 704 пикселя
Высота : 512 пикселей
Соотношение сторон : 1,375
Частота кадров : 25,000 кадров/сек
Цветовое пространство : YUV
Субдискретизация насыщенности : 4:2:0
Битовая глубина : 8 бит
Тип развёртки : Прогрессивная
Метод сжатия : С потерями
Бит/(Пиксели*Кадры) : 0.196
Размер потока : 1,48 Гбайт (84%)
Библиотека кодирования : XviD 1.2.0.dev47 (UTC 2006-11-01)

Аудио
Идентификатор : 1
Формат : AC-3
Формат/Информация : Audio Coding 3
Расширение режима : CM (complete main)
Идентификатор кодека : 2000
Продолжительность : 1 ч. 59 м.
Вид битрейта : Постоянный
Битрейт : 320 Кбит/сек
Каналы : 2 канала
Расположение каналов : Front: L R
Частота : 48,0 КГц
Битовая глубина : 16 бит
Метод сжатия : С потерями
Размер потока : 274 Мбайт (15%)
Выравнивание : Разделение по промежуткам
Продолжительность промежутка : 40 мс. (1,00 видеокадр)
Время предзагрузки промежутка : 500 мс.



За рип спасибо veld30



   Похожие торренты   Торрент   Размер 
В этой теме нет новых непрочитанных сообщений. Рыбачьте с нами. Видеоприложение. Выпуск №40. Декабрь (2012) DVDRip

12 | 3

1.36 ГБ

В этой теме нет новых непрочитанных сообщений. Рыбачьте с нами. Видеоприложение. Выпуск №45. Май (2013) DVDRip

8 | 2

1.17 ГБ

В этой теме нет новых непрочитанных сообщений. Рыбачьте с нами. Видеоприложение. Выпуск №50. Октябрь (2013) DVDRip

13 | 7

998.11 МБ

В этой теме нет новых непрочитанных сообщений. Рыбачьте с нами. Видеоприложение. Выпуск №47. Июль (2013) DVDRip

9 | 5

898.64 МБ

В этой теме нет новых непрочитанных сообщений. Рыбачьте с нами. Видеоприложение. Выпуск №48. Август (2013) DVDRip

5 | 4

1.27 ГБ

В этой теме нет новых непрочитанных сообщений. Рыбачьте с нами. Видеоприложение. Выпуск №46. Июнь (2013) DVDRip

12 | 5

828.57 МБ

В этой теме нет новых непрочитанных сообщений. Рыбачьте с нами. Видеоприложение. Выпуск №49. Сентябрь (2013) DVDRip

108 | 7

1.07 ГБ




Вы не можете начинать темы
Вы не можете отвечать на сообщения
Вы не можете редактировать свои сообщения
Вы не можете удалять свои сообщения
Вы не можете добавлять вложения

Перейти:  
Для Мосгорсуда, Роскомнадзора и рекламодателей: mosgorsud-torrent[собачка]yandex.ru
 Вход
ppkBB3cker v.2 © 2008-2014 @ PPK
[ Time : 0.063s | 16 Queries | GZIP : Off ]

cron