img image001 image001 image001 image001 image001 image001 image001 image001 image001 image001 image001 image001 image001 image001 image001

Planets Sun Sun Sun
Статистика раздачи
Автор: PriZraK | Размер: 39.6 ГБ | Добавлен: 02 янв 2016
Раздают: 9    Качают: 96
Скачать торрент
Скачать торрент
Описание торрента

СообщениеДобавлено: 02 янв 2016 



Информация о фильме
Название: Зощенко. Сладкие рассказы
Год выхода: 2012-2013
Жанр: Обучающий, кулинария
В ролях: Вера Зощенко

О фильме:
Вкусно о сладком от правнучки знаменитого писателя. Среди «Сладких рассказов» Веры Зощенко вы найдете десерты на любой вкус для хорошего настроения,

радости и счастья. Вы узнаете, почему сырники — сущие мормышки-недотыкомки, что ватрушка — хитровыкрученная особа, а шанежки вкусны даже на слух!

Страна: Россия
Студия: Телеканал «Еда»
Продолжительность: 19-25 минуты на выпуск
Перевод: Не требуется

Файл
Кодек: AVC / AAC
Качество: WEB-DL 720p
Видео: 1280x720 25.00fps, ~2500 Kbit/sec
Звук: Russian: AAC, 192 kb/s (2 ch)

«Даосский коктейль» и яблочки в кунжуте
«Ягодный хрум» и напиток «Пьяная шипучка»
Бананы фламбе. Банановый санди
Болиньос
Булочки «Бешеные улитки»
Бурфи
Венский императорский омлет и напиток «Шмель»
Выпечка «Дачные корзинки»
Голладский яблочный пай
Десерт «Бледная калория»
Десерт «Бонни и Клайд», коктейль «Персик»
Десерт «В объятиях зефира»
Десерт «Гозинаки» и напиток «Чиколачино»
Десерт «День и Ночь»
Десерт «Заводной апельсин»
Десерт «Клубника под снегом»
Десерт «Кофейный экзерсис»
Десерт «Наяды» и коктейль «Деспина»
Десерт «Полосатый рейс»
Десерт «Прекрасная Елена»
Десерт «Принцесса на горошине», фруктовые шашлычки
Десерт «Пятничное утро» и коктейль «Тяпница»
Десерт «Сердечник»
Десерт «Тянь-Шань»
Десерт «Электрификация»
Десерт «Яблочный клад» и напиток «Сабайон»
Десерт с маскарпоне, клубникой и печеньем
Жареное мороженое с фунчёзой
Заварные булочки с кремом и клубникой
Заигрыши
Запеканка «Роскошное утро»
Имбирные пряники «Духи Рождества»
Кексы «Шоколадный плен да банановый крем»
Клафути с ягодами
Клубничный тирамису «Вира»
Конфеты «Кокосовый рай». Карамельный мохито
Конфеты «Кукушарики» и десерт «Пьяный шоколад»
Конфеты «Панфорте»
Конфеты из миндаля и шоколада, фруктовый салат
Крем «Валенсия»
Крем-карамель «Обмани меня»
Ленивые ватрушки и «Авиньонское утро»
Маффины с кремом и шоколадом
Мексиканское свадебное печенье
Миндальные пирожные с малиной
Мини-чизкейки
Мусс из белого шоколада. Клубничный смузи
Оранжевые кексы
Ореховая нуга «Коврик Аладдина»
Панна-котта с клубничным супом
Парфе с ягодами и коктейль «Сидней»
Пасха «Без кулис»
Печеное манго «пирога» с ягодным шербетом
Печенье «Монте с перцем»
Печенье «Чайные розы»
Печенье «Шушпанчики»
Пирог «Застенчивая слива»
Пирог «Солнцеворот»
Пирог «Торопыжка»
Пирожное «Картошка» с кедровыми орешками
Пирожное «Мильфей с бананами»
Пирожное «Спящий Везувий»
Пирожное «Треуголка Наполеона»
Пирожное «Царевна-лягуха»
Пирожные «Валентинки»
Пирожные «Пионерская правда» и банановый коктейль
Пирожные «Простые волшебные вещи»
Пончики «Iponchiki»
Рождественское печенье «Лебкухен»
Слоеные корзинки «Кувшинки»
Слоеные корзиночки с кремом и ягодами
Слоеный пирог «Черноморец»
Сырники по-киевски
Торт «Графские развалины»
Торт «Зефир»
Торт «Лунный кролик»
Торт «Маковая росинка»
Торт «Не кнут»
Торт «Панчо»
Торт «Синема»
Торт «Сюрреалист»
Трайфл «Кофе-брейк»
Фруктовый салат в ананасе
Хворост «Колодец»
Шоколадная колбаска и десерт «Малиновые облака»
Шоколадное пирожное флан. Флип апельсиновый
Шоколадные блинчики «Мечта сладкоежки»
Шоколадный брауни
Шоколадный мусс
Шоколадный фадж
Штрудель «Карамельный вихрь»
Яблоки, фаршированные малиной
Яблочный пирог «Серебряный век»
Яблочный пирог «Татин»
General
Format : MPEG-4
Format profile : Base Media / Version 2
Codec ID : mp42
File size : 487 MiB
Duration : 24mn 30s
Overall bit rate mode : Variable
Overall bit rate : 2 777 Kbps
Encoded date : UTC 2014-02-14 17:27:08
Tagged date : UTC 2014-02-14 17:27:08
gsst : 0
gstd : 1470055
gssd : BADC29281MM1438614415241126
gshh : r1---sn-n8v7znel.googlevideo.com

Video
ID : 1
Format : AVC
Format/Info : Advanced Video Codec
Format profile : High@L3.1
Format settings, CABAC : Yes
Format settings, ReFrames : 1 frame
Format settings, GOP : M=1, N=60
Codec ID : avc1
Codec ID/Info : Advanced Video Coding
Duration : 24mn 30s
Bit rate : 2 582 Kbps
Maximum bit rate : 5 179 Kbps
Width : 1 280 pixels
Height : 720 pixels
Display aspect ratio : 16:9
Frame rate mode : Constant
Frame rate : 25.000 fps
Color space : YUV
Chroma subsampling : 4:2:0
Bit depth : 8 bits
Scan type : Progressive
Bits/(Pixel*Frame) : 0.112
Stream size : 453 MiB (93%)
Tagged date : UTC 2014-02-14 17:29:36

Audio
ID : 2
Format : AAC
Format/Info : Advanced Audio Codec
Format profile : LC
Codec ID : 40
Duration : 24mn 30s
Bit rate mode : Variable
Bit rate : 192 Kbps
Maximum bit rate : 203 Kbps
Channel(s) : 2 channels
Channel positions : Front: L R
Sampling rate : 44.1 KHz
Compression mode : Lossy
Stream size : 33.6 MiB (7%)
Title : IsoMedia File Produced by Google, 5-11-2011
Encoded date : UTC 2014-02-14 17:28:48
Tagged date : UTC 2014-02-14 17:29:36



   Похожие торренты   Торрент   Размер 
В этой теме нет новых непрочитанных сообщений. Михаил Зощенко - Рассказы и фельетоны (2005) MP3

171 | 18

1.07 ГБ

В этой теме нет новых непрочитанных сообщений. Михаил Зощенко - Рассказы. [Русские классики детям] (2011) MP3

145 | 25

520.35 МБ

В этой теме нет новых непрочитанных сообщений. Михаил Михайлович Зощенко - Рассказы (1923-1945) (2009) MP3

49 | 10

101.25 МБ

В этой теме нет новых непрочитанных сообщений. The Sims 3: Katy Perry. Сладкие радости (2012) PC

684 | 16

2.65 ГБ

В этой теме нет новых непрочитанных сообщений. Рассказы (2012) BDRip 720p от Neofilm | Лицензия

53 | 4

4.34 ГБ

В этой теме нет новых непрочитанных сообщений. Мои супер психо-сладкие 16: Часть 3 / My Super Psycho Sweet 16: Part 3 (2012) HDRip | L2

21 | 3

1.52 ГБ

В этой теме нет новых непрочитанных сообщений. Рассказы (2012) Blu-Ray

12 | 2

21.61 ГБ




Вы не можете начинать темы
Вы не можете отвечать на сообщения
Вы не можете редактировать свои сообщения
Вы не можете удалять свои сообщения
Вы не можете добавлять вложения

Перейти:  
Для Мосгорсуда, Роскомнадзора и рекламодателей: mosgorsud-torrent[собачка]yandex.ru
 Вход
ppkBB3cker v.2 © 2008-2014 @ PPK
[ Time : 0.039s | 14 Queries | GZIP : On ]

Торрент трекер RUTOR.IN, Не можете зайти на rutor.org? Какой новый адрес рутор? Какое зеркало рутор? Не работает rutor.org и зеркала? Тогда наш торрент специально для вас. Rutor.in неофициальное зеркало rutor. В случае если у Вас заблокирован rutor или вдруг Вы не можете на него зайти, то Вы без труда сможете скачать бесплатно и без рекламы последние новинки кино, игр, сериалов и прочего у нас, на Rutor.in. Не нужно использовать прокси, чтобы зайти на рутор, достаточно воспользоваться нашим ресурсом. Все новые фильмы, игры, сериалы, книги и музыка за 2013 и 2014 годы через торрент бесплатно. Скачивайте фильмы в хорошем качестве, игры для пк, xbox, playstation без регистрации. У нас вы найдете новые Зарубежные сериалы и Русские сериалы 2013, 2014, 2015 годов. Оставайтесь с нами, качайте любимые фильмы, игры, сериалы, книги и музыку.