img image001 image001 image001 image001 image001 image001 image001 image001 image001 image001 image001 image001 image001 image001 image001

Planets Sun Sun Sun
Статистика раздачи
Автор: PriZraK | Размер: 4.03 ГБ | Добавлен: 02 янв 2016
Раздают: 303    Качают: 23
Скачать торрент
Скачать торрент
Описание торрента

СообщениеДобавлено: 02 янв 2016 



Информация о фильме
Название: Поплавочный практикум
Год выхода: 2015
Страна: Россия
Жанр: Рыбалка, документальный
Ведущий: Евгений Середа
Продолжительность: 08 серий ~ 00:28:50

О фильме:
Этот цикл адресован тем, кто осваивают непростую технику поплавочной ловли. Авторы программ цикла постарались рассказать о тех нюансах этого вида рыбалки, которые нередко ставят в тупик начинающих рыболовов

Файл
Кодек: H.264
Качество: TVRip
Видео: 720x400 (16:9) 1800 kbps 25fps
Звук: AC3, 192 Kbps, 48.0 KHz, 2 ch
1. На одном из искусственных московских водоемов рыболов-спортсмен Евгений Середа ловит рыбу на поплавочные снасти двух видов – маховое удилище с глухой оснасткой и болонскую снасть. Какой из способов окажется успешнее? Об этом и многом другом смотрите в этой программе.
2. На канале имени Москвы рыболов-спортсмен Евгений Середа ловит окуня на поплавочную снасть с глухой оснасткой. Чтобы правильно настроить снасть и эффективно закормить рыбу существует множество рыболовных хитростей.
3. Уклейка является одной из самых маленьких рыбок, обитающих в наших реках и водоемах. Однако ловля ее популярна не только среди детей и подростков, но и среди спортсменов-рыболовов, но даже при ужении уклейки требуются некоторые знания и умения, как поймать уклейку покажет рыболов-спортсмен Евгений Середа.
4. На одном из подмосковных водоемов рыболов-спортсмен Евгений Середа ловит карася на болонскую снасть. Но в этом водоеме возможна поимка и крупного карпа. Какой должна быть снасть, чтобы при ловле небольшого по размерам карася выдержать поклевки и гораздо более крупного карпа? Об этом и многом другом смотрите в этой программе.
5. На одном из подмосковных водоемов рыболов-спортсмен Евгений Середа ловит карпа на штекерную снасть. Поимка карпа неплохой трофей для любого рыболова. Для этого необходимо задействовать целый арсенал рыболовных хитростей.
6. На одном из подмосковных водоемов рыболов-спортсмен Евгений Середа ловит линя на поплавочную снасть. Несмотря на то, что линь обитает в большинстве водоемов средней полосы России, факты его поимки очень редки и в большинстве случайны. О том, как подобрать ключик к этой хитрой и осторожной рыбе, смотрите в этой программе.
7. На Москва-реке рыболов-спортсмен Евгений Середа ловит плотву на штекер. Несмотря на то, что плотвы в реке много, из-за обилия корма в воде ловить ее весьма непросто. Как привлечь рыбу? Точечный закорм и деликатная снасть в такой ситуации помогут не остаться без улова.
8. На Москве-реке рыболов-спортсмен Евгений Середа ловит голавля и подлещика в проводку. Как правильно подобрать компоненты прикормки и грамотно собрать снасть, чтобы не остаться без улова? Вы сможете ответить на все эти вопросы, посмотрев программу.
9. На Москве-реке рыболов-спортсмен Евгений Середа ловит плотву и подлещика на матчевую снасть со скользящим поплавком. Несмотря на распространенное мнение, что данная техника ловли сложна и требует специальной подготовки, зная несколько рыболовных хитростей успешно ловить таким способом может каждый.
10. В этой программе рыболов-спортсмен Евгений Середа ловит крупного леща на течении на плоские поплавки. И главной причиной успеха такой рыбалки, не считая деликатной снасти, является секрет приготовления прикормки, позволяющей не производить докорм в процессе ловли, чтобы не пугать тем самым рыбу.
Complete name : D:Поплавочный практикум.mp4
Format : MPEG-4
Format profile : Base Media
Codec ID : isom
File size : 412 MiB
Duration : 28mn 50s
Overall bit rate : 1 998 Kbps
Writing application : XviD4PSP 6.0 / 54.29.105

Video
ID : 2
Format : AVC
Format/Info : Advanced Video Codec
Format profile : High@L4.1
Format settings, CABAC : Yes
Format settings, ReFrames : 3 frames
Codec ID : avc1
Codec ID/Info : Advanced Video Coding
Duration : 28mn 50s
Bit rate : 1 800 Kbps
Width : 720 pixels
Height : 400 pixels
Display aspect ratio : 16:9
Frame rate mode : Constant
Frame rate : 25.000 fps
Color space : YUV
Chroma subsampling : 4:2:0
Bit depth : 8 bits
Scan type : Progressive
Bits/(Pixel*Frame) : 0.250
Stream size : 371 MiB (90%)
Writing library : x264 core 128 r2216M 198a7ea
Encoding settings : cabac=1 / ref=3 / deblock=1:0:0 / analyse=0x3:0x133 / me=hex / subme=7 / psy=1 / psy_rd=1.00:0.20 / mixed_ref=1 / me_range=16 / chroma_me=1 / trellis=1 / 8x8dct=1 / cqm=0 / deadzone=21,11 / fast_pskip=1 / chroma_qp_offset=-3 / threads=4 / lookahead_threads=1 / sliced_threads=0 / nr=0 / decimate=1 / interlaced=0 / bluray_compat=0 / constrained_intra=0 / bframes=3 / b_pyramid=1 / b_adapt=2 / b_bias=0 / direct=3 / weightb=1 / open_gop=0 / weightp=2 / keyint=250 / keyint_min=25 / scenecut=40 / intra_refresh=0 / rc_lookahead=40 / rc=2pass / mbtree=1 / bitrate=1800 / ratetol=1.0 / qcomp=0.60 / qpmin=10 / qpmax=51 / qpstep=4 / cplxblur=20.0 / qblur=0.5 / vbv_maxrate=9000 / vbv_bufsize=1835 / nal_hrd=none / ip_ratio=1.40 / aq=1:1.00

Audio
ID : 1
Format : AC-3
Format/Info : Audio Coding 3
Mode extension : CM (complete main)
Format settings, Endianness : Big
Codec ID : ac-3
Duration : 28mn 50s
Bit rate mode : Constant
Bit rate : 192 Kbps
Channel(s) : 2 channels
Channel positions : Front: L R
Sampling rate : 48.0 KHz
Bit depth : 16 bits
Compression mode : Lossy
Stream size : 39.6 MiB (10%)
Language : Russian



   Похожие торренты   Торрент   Размер 
В этой теме нет новых непрочитанных сообщений. Кулинарный практикум №3 (март) (2011) PDF

0 | 2

22.58 МБ

В этой теме нет новых непрочитанных сообщений. Кулинарный практикум №7 (июль) (2010) PDF

1 | 3

38.45 МБ

В этой теме нет новых непрочитанных сообщений. Кулинарный практикум №2 (февраль) (2011) PDF

1 | 42

22.82 МБ

В этой теме нет новых непрочитанных сообщений. Кулинарный практикум №1 (январь) (2011) PDF

0 | 2

23.31 МБ

В этой теме нет новых непрочитанных сообщений. Кулинарный практикум №9 (сентябрь) (2010) PDF

0 | 3

23.88 МБ

В этой теме нет новых непрочитанных сообщений. Кулинарный практикум № 10 (октябрь) (2010) PDF

1 | 2

22.82 МБ

В этой теме нет новых непрочитанных сообщений. Кулинарный практикум №6-8 (Июнь - Август) (2012) PDF

0 | 3

76.64 МБ




Вы не можете начинать темы
Вы не можете отвечать на сообщения
Вы не можете редактировать свои сообщения
Вы не можете удалять свои сообщения
Вы не можете добавлять вложения

Перейти:  
Для Мосгорсуда, Роскомнадзора и рекламодателей: mosgorsud-torrent[собачка]yandex.ru
 Вход
ppkBB3cker v.2 © 2008-2014 @ PPK
[ Time : 0.027s | 14 Queries | GZIP : Off ]

Торрент трекер RUTOR.IN, Не можете зайти на rutor.org? Какой новый адрес рутор? Какое зеркало рутор? Не работает rutor.org и зеркала? Тогда наш торрент специально для вас. Rutor.in неофициальное зеркало rutor. В случае если у Вас заблокирован rutor или вдруг Вы не можете на него зайти, то Вы без труда сможете скачать бесплатно и без рекламы последние новинки кино, игр, сериалов и прочего у нас, на Rutor.in. Не нужно использовать прокси, чтобы зайти на рутор, достаточно воспользоваться нашим ресурсом. Все новые фильмы, игры, сериалы, книги и музыка за 2013 и 2014 годы через торрент бесплатно. Скачивайте фильмы в хорошем качестве, игры для пк, xbox, playstation без регистрации. У нас вы найдете новые Зарубежные сериалы и Русские сериалы 2013, 2014, 2015 годов. Оставайтесь с нами, качайте любимые фильмы, игры, сериалы, книги и музыку.