img image001 image001 image001 image001 image001 image001 image001 image001 image001 image001 image001 image001 image001 image001 image001

Planets Sun Sun Sun
Статистика раздачи
Автор: Nickolas3434 | Размер: 7.25 ГБ | Добавлен: 25 янв 2016
Раздают: 9    Качают: 8
Скачать торрент
Скачать торрент
Описание торрента

СообщениеДобавлено: 25 янв 2016 


Информация о фильме
Название: Еда, я люблю тебя
Год выхода: 2015
Жанр: Обучающий, тв-передача, кулинария
В ролях:
Владимир Дантес – популярный певец, победитель шоу «Фабрика звезд-2», участник группы «ДиО.фильмы». Считает, что хорошая еда не обязательно должна быть дорогой и часто оказывается прав.
Эдуард Мацаберидзе - комик stand up, актер, участник шоу «Убойная лига», талантливый ведущий. По образованию – менеджер пищевой промышленности, повар-любитель, что позволяет ему авторитетно критиковать любую кухню.
Николай Камка – комик stand up, участник шоу «Убойная лига», актер. Полюбил еду в день своего рождения, не представляет жизни без средиземноморской кухни и восточной халвы.
Молодые, обаятельные и острые на язык ребята расскажут о еде нормальным языком. С такими ведущими даже пресное блюдо захочется попробовать!
О фильме:
«Еда, я люблю тебя!» - первое кулинарное тревел-шоу и лучший путеводитель по самым необычным, аппетитным, вкусным достопримечательностям по всему миру.
В каждом городе жребий решает, кто из троих ведущих отправится в шикарный ресторан, кому предстоит найти лучшую уличную еду, а кто будет самостоятельно готовить блюдо национальной домашней кухни в гостеприимной семье местных жителей. Друзья попробуют изысканные деликатесы и недорогие шедевры простой кухни, и расскажут о еде так, что ее непременно захочется попробовать!
01. Шанхай. Китай
Второй сезон начнется с Шанхая! В этом городе прошлое и будущее смешалось в невообразимое кулинарное разнообразие настоящего. Здесь Владимиру Дантесу выпали рестораны, Николай Камка попробует уличную еду, а Эд Мацаберидзе попадет на семейный обед. Ведущие оценят яйцо пашот с черной икрой, мраморную говядину, курицу бедняка, дзундзы и жареного воробья. Им придется удивляться на каждом шагу. Даже Эду в гостеприимном китайском доме предстоит приготовить то, что он совсем не ожидал.
02. Пекин. Китай
Несмотря на то, что на 22 миллиона жителей приходится всего один мишленовский ресторан, городу есть, чем удивить. Пять тысяч лет подряд сюда свозится все самое лучшее. В городе императоров Николай отправится в местную семью, Эдуард пройдется по элитным ресторанам, а Владимир – по уличному фаст-фуду. Им предстоит попробовать кухни разных провинций. Соленую улитку из Цзянсу, копченую голову гуся из Тяньцзынь, свинину с трюфелем из Фунзянь и курицу с арахисом из Сынчуань. Но что ведущим понравится больше - кулинарный экстрим, простая домашняя еда или шедевры высокой кухни?
03. Коломбо. Шри-Ланка
Три друга отправились в столицу Шри-Ланки - Коломбо. Там, на берегу живописного Индийского океана они узнали свой жребий. Владимиру выпала уличная еда, Эд будет шиковать в ресторанах, а Николай, как приемный ребенок, снова отправится в новую семью. Карри и рис, рис и карри, а также всевозможные сочетания риса и карри – это первое, с чем сталкивается турист на Шри-Ланке. Но, если пойти дальше, то можно открыть для себя поистине деликатные блюда. Например, Эд попробует удивительную кильку, на два часа станет вегетарианцем и придет в восторг от овощных блюд. Владимир Дантес легко позволит устрицы на обед и котту микс на ужин. А Николай узнает, что можно приготовить из мочалки и цветка банана.

Официальный сайт
Страна: Россия
Студия: Пятница
Продолжительность: ~ 00:46:00 выпуск
Перевод: Не требуется
Файл
Кодек: XviD / MP3
Качество: SATRip
Видео: MPEG4, XviD, 704x400 (16:9), 25.000 fps, 1 550 Kbps (0.220 bit/pixel)
Звук: MP3, 48.0 KHz, 2 ch, 128 Kbps, CBR
General
Complete name : 01.Шанхай. Китай.avi
Format : AVI
Format/Info : Audio Video Interleave
File size : 550 MiB
Duration : 45mn 32s
Overall bit rate : 1 688 Kbps
Writing application : VirtualDubMod 1.5.10.3 | www.virtualdub-fr.org || (build 2550/release)
Writing library : VirtualDubMod build 2550/release
Video
ID : 0
Format : MPEG-4 Visual
Format profile : Advanced Simple@L5
Format settings, BVOP : 1
Format settings, QPel : No
Format settings, GMC : No warppoints
Format settings, Matrix : Default (H.263)
Codec ID : XVID
Codec ID/Hint : XviD
Duration : 45mn 32s
Bit rate : 1 550 Kbps
Width : 704 pixels
Height : 400 pixels
Display aspect ratio : 16:9
Frame rate : 25.000 fps
Color space : YUV
Chroma subsampling : 4:2:0
Bit depth : 8 bits
Scan type : Progressive
Compression mode : Lossy
Bits/(Pixel*Frame) : 0.220
Stream size : 505 MiB (92%)
Writing library : XviD 1.2.1 (UTC 2008-12-04)
Audio
ID : 1
Format : MPEG Audio
Format version : Version 1
Format profile : Layer 3
Codec ID : 55
Codec ID/Hint : MP3
Duration : 45mn 32s
Bit rate mode : Constant
Bit rate : 128 Kbps
Channel(s) : 2 channels
Sampling rate : 48.0 KHz
Compression mode : Lossy
Stream size : 41.7 MiB (8%)
Alignment : Aligned on interleaves
Interleave, duration : 40 ms (1.00 video frame)
Interleave, preload duration : 504 ms
Writing library : LAME3.98r
Encoding settings : -m s -V 4 -q 2 -lowpass 17 -b 128



   Похожие торренты   Торрент   Размер 
В этой теме нет новых непрочитанных сообщений. Еда, я люблю тебя [02x01-12] (2015) SATRip

14 | 13

6.68 ГБ

В этой теме нет новых непрочитанных сообщений. Еда, я люблю тебя [02x01-03] (2015) SATRip

1 | 5

8.38 ГБ

В этой теме нет новых непрочитанных сообщений. Ненавижу и люблю [01-04 из 04] (2015) SATRip

1271 | 76

2.05 ГБ

В этой теме нет новых непрочитанных сообщений. Люблю, потому что люблю (2012) IPTVRip от Files-x

48 | 9

1.31 ГБ

В этой теме нет новых непрочитанных сообщений. Я тебя люблю, я тоже не люблю / Я тебя люблю, я тебя тоже...нет / Je t'aime moi non plus (1976) DVDRip | L1 от AndreSweet

42 | 5

1.37 ГБ

В этой теме нет новых непрочитанных сообщений. Люблю 9 марта! (2010) SATRip

18 | 5

908.08 МБ

В этой теме нет новых непрочитанных сообщений. Люблю и точка (2011) SATRip от КинозалSAT

50 | 4

1.37 ГБ




Вы не можете начинать темы
Вы не можете отвечать на сообщения
Вы не можете редактировать свои сообщения
Вы не можете удалять свои сообщения
Вы не можете добавлять вложения

Перейти:  
Для Мосгорсуда, Роскомнадзора и рекламодателей: mosgorsud-torrent[собачка]yandex.ru
 Вход
ppkBB3cker v.2 © 2008-2014 @ PPK
[ Time : 0.026s | 14 Queries | GZIP : Off ]

Торрент трекер RUTOR.IN, Не можете зайти на rutor.org? Какой новый адрес рутор? Какое зеркало рутор? Не работает rutor.org и зеркала? Тогда наш торрент специально для вас. Rutor.in неофициальное зеркало rutor. В случае если у Вас заблокирован rutor или вдруг Вы не можете на него зайти, то Вы без труда сможете скачать бесплатно и без рекламы последние новинки кино, игр, сериалов и прочего у нас, на Rutor.in. Не нужно использовать прокси, чтобы зайти на рутор, достаточно воспользоваться нашим ресурсом. Все новые фильмы, игры, сериалы, книги и музыка за 2013 и 2014 годы через торрент бесплатно. Скачивайте фильмы в хорошем качестве, игры для пк, xbox, playstation без регистрации. У нас вы найдете новые Зарубежные сериалы и Русские сериалы 2013, 2014, 2015 годов. Оставайтесь с нами, качайте любимые фильмы, игры, сериалы, книги и музыку.