img image001 image001 image001 image001 image001 image001 image001 image001 image001 image001 image001 image001 image001 image001 image001

Planets Sun Sun Sun
Статистика раздачи
Автор: Nickolas3434 | Размер: 5.95 ГБ | Добавлен: 25 янв 2016
Раздают: 28    Качают: 3
Скачать торрент
Скачать торрент
Описание торрента

СообщениеДобавлено: 25 янв 2016 


Информация о фильме
Название: Кухня по заявкам с Ильей Лазерсоном
Год выхода: 2015
Жанр: Обучающий, телепередача, кулинария
Ведущий: Илья Лазерсон
О фильме:
22 числа каждого месяца в 20.30 «Кухня по заявкам» с Ильёй Лазерсоном на телеканале «Еда». Теперь вы решаете, что он будет готовить. Голосуйте на tveda.ru/vote/ Смотрите то, что хотите увидеть! Общайтесь друг с другом и с поваром во время прямого эфира в чате на tv.tveda.ru. «КПЗ» — Еда зависит от тебя!
01. Грибы. Эфир от 22.09.2015
02. Речная рыба (щука). Эфир от 22.10.2015
03. Свинина. Эфир от 22.11.2015
04. Блюда без майонеза. Эфир от 22.12.2015

Официальный сайт
Страна: Россия
Студия: Еда ТВ
Продолжительность: ~ 01:35:00 выпуск
Перевод: Не требуется
Файл
Кодек: XviD / MP3
Качество: SATRip
Видео: MPEG4, XviD, 720x400 (16:9), 25.000 fps, 2 574 Kbps (0.358 bit/pixel)
Звук: MP3, 48.0 KHz, 2 ch, 128 Kbps, CBR
General
Complete name : Кухня по заявкам с Ильей Лазерсоном-/КПЗ-04(2015.12.22).avi
Format : AVI
Format/Info : Audio Video Interleave
File size : 1.64 GiB
Duration : 1h 26mn
Overall bit rate : 2 712 Kbps
Writing application : VirtualDubMod 1.5.10.3 | www.virtualdub-fr.org || (build 2550/release)
Writing library : VirtualDubMod build 2550/release
Video
ID : 0
Format : MPEG-4 Visual
Format profile : Advanced Simple@L5
Format settings, BVOP : 1
Format settings, QPel : No
Format settings, GMC : No warppoints
Format settings, Matrix : Default (H.263)
Codec ID : XVID
Codec ID/Hint : XviD
Duration : 1h 26mn
Bit rate : 2 574 Kbps
Width : 720 pixels
Height : 400 pixels
Display aspect ratio : 16:9
Frame rate : 25.000 fps
Color space : YUV
Chroma subsampling : 4:2:0
Bit depth : 8 bits
Scan type : Progressive
Compression mode : Lossy
Bits/(Pixel*Frame) : 0.358
Stream size : 1.56 GiB (95%)
Writing library : XviD 1.2.1 (UTC 2008-12-04)
Audio
ID : 1
Format : MPEG Audio
Format version : Version 1
Format profile : Layer 3
Codec ID : 55
Codec ID/Hint : MP3
Duration : 1h 26mn
Bit rate mode : Constant
Bit rate : 128 Kbps
Channel(s) : 2 channels
Sampling rate : 48.0 KHz
Compression mode : Lossy
Stream size : 79.2 MiB (5%)
Alignment : Aligned on interleaves
Interleave, duration : 40 ms (1.00 video frame)
Interleave, preload duration : 504 ms
Writing library : LAME3.98r
Encoding settings : -m s -V 4 -q 2 -lowpass 17 -b 128



   Похожие торренты   Торрент   Размер 
В этой теме нет новых непрочитанных сообщений. Кухня в Парижe. Кухня кухни. Фильм о фильме (2014) SATRip

1471 | 38

282.1 МБ

В этой теме нет новых непрочитанных сообщений. Сборник - Русская Дискотека По Заявкам (2015) MP3

1029 | 56

683.37 МБ

В этой теме нет новых непрочитанных сообщений. Сборник - Русская Дискотека По Заявкам (2015) MP3

470 | 6

683.37 МБ

В этой теме нет новых непрочитанных сообщений. Сборник - Дискотека По Заявкам. Мужской Заказ (2015) MP3

616 | 43

670.42 МБ

В этой теме нет новых непрочитанных сообщений. Белорусская кухня [01-09] (2015) SATRip

33 | 2

2.39 ГБ

В этой теме нет новых непрочитанных сообщений. Армянская кухня [01-05] (2015) SATRip

183 | 7

1.24 ГБ

В этой теме нет новых непрочитанных сообщений. Небанальная кухня Павлова [01-70] (2014-2015) SATRip

4 | 6

21.49 ГБ




Вы не можете начинать темы
Вы не можете отвечать на сообщения
Вы не можете редактировать свои сообщения
Вы не можете удалять свои сообщения
Вы не можете добавлять вложения

Перейти:  
Для Мосгорсуда, Роскомнадзора и рекламодателей: mosgorsud-torrent[собачка]yandex.ru
 Вход
ppkBB3cker v.2 © 2008-2014 @ PPK
[ Time : 0.023s | 14 Queries | GZIP : Off ]

Торрент трекер RUTOR.IN, Не можете зайти на rutor.org? Какой новый адрес рутор? Какое зеркало рутор? Не работает rutor.org и зеркала? Тогда наш торрент специально для вас. Rutor.in неофициальное зеркало rutor. В случае если у Вас заблокирован rutor или вдруг Вы не можете на него зайти, то Вы без труда сможете скачать бесплатно и без рекламы последние новинки кино, игр, сериалов и прочего у нас, на Rutor.in. Не нужно использовать прокси, чтобы зайти на рутор, достаточно воспользоваться нашим ресурсом. Все новые фильмы, игры, сериалы, книги и музыка за 2013 и 2014 годы через торрент бесплатно. Скачивайте фильмы в хорошем качестве, игры для пк, xbox, playstation без регистрации. У нас вы найдете новые Зарубежные сериалы и Русские сериалы 2013, 2014, 2015 годов. Оставайтесь с нами, качайте любимые фильмы, игры, сериалы, книги и музыку.