img image001 image001 image001 image001 image001 image001 image001 image001 image001 image001 image001 image001 image001 image001 image001

Planets Sun Sun Sun
Статистика раздачи
Автор: PriZraK | Размер: 12.31 ГБ | Добавлен: 11 авг 2016
Раздают: 5    Качают: 1
Скачать торрент
Скачать торрент
Описание торрента

СообщениеДобавлено: 11 авг 2016 


Информация о фильме
Название: Огненная Еда
Год выхода: 2013
Жанр: Обучающий, кулинария
В ролях: Хаким Ганиев
О фильме:
В программе «Огненная еда» известный столичный концепт-шеф, блогер и знаток восточной кухни Хаким Ганиев научит вас готовить любые блюда на огне. Конечно, многие рецепты нашего повара адаптированы для приготовления на домашней кухне, но для придания блюдам особенного, аутентичного вкуса, желательно их готовить на живом огне с использованием казана и мангала. Мясо, птица, овощи – все это будет в буквальном смысле охвачено пламенем! Ведь восточная кухня, как восточный темперамент – яркая, сочная и очень жгучая!
Не пропустите самые интересные кулинарные мастер-классы по приготовлению еды на огне!
1. Плов "Весна". Долма. Овощной салат.
2. Суп с фаршированным перцем Долма шурпа. Кутабы.
3. Перепелки, фаршированные бараниной. Шашлык из сыра.
4. Казан кебаб. Теплый салат из огурцов с мясом "Звезда Ташкента".
5. Шурпа. Шашлык по-ташкентски.
6. Шашлык из седла барашка. Жареные почки.
7. Шавля.
8. Шашлык из бараньих ребрышек "Семечки". Теплый салат Лечо.
9. Люля кебаб. Овощи гриль.
10. Шурпа с кюфтой. Жареные лепешки с луком.
11. Откидной плов. Соус хареш из персиков.
12. Шашлык из бараньей корейки. Закуска для шашлыка.
13. Плов без мяса с помидорами. Шашлык из куриных крыльев.
14. Димляма (овощи с мясом в собственном соку). Лепешки.
15. Плов с фаршированным перцем. Салат с редькой.
16. Слоеный шашлык из говядины. Овощной шашлык.
17. Шашлык из молодого барашка. Шашлык из кукурузы.
18. Шашлык из куриной грудки. Салат из клубники.
19. Плов для мальчиков (плов с шашлыком). Салат "Шакароб".
20. Лагман.
21. Манты. Салат из овощей.
22. Шашлык из бараньих ребер "Три пальца". "Голова барашка". Салат "Гранатовый браслет".
23. Рулет из баранины. Фаршированные помидоры черри.
24. Суп "Машхурда". Слоеные лепешки.
25. Рисовый суп "Мастава". Напиток "Айран".
26. Баранья лопатка на огне и овощи гриль. Лимонный соус.
27. Шашлык из семги. Салат из шампиньонов с пармезаном.
28. Плов с сухофруктами.
29. Плов с грибами. Шаурма.
30. Жареные манты.
31. Фаршированная айва. Салат "Радуга".
32. Нарын с конской колбасой.
33. Чебуреки. Салат из арбуза.
34. Вегетарианский плов с тыквой. Салат из помидоров и сюзьмы.
35. Шурпа в горшочках. Лепешки.
36. Манты с тыквой. Десерт из тыквы.
37. Мазандаранский тигр.
38. Шилпилдок.

Страна: Россия
Студия: Кухня ТВ
Продолжительность: 38 x ~00:26:00
Файл
Кодек: DivX
Качество: SATRip
Видео: 720x400, 1598 Кбит/сек
Звук: MP3,192 Кбит/сек,44,1 КГц,2CH
Общее
Полное имя : H:КУЛИНАРИЯ КНИГИOgnennajEda(1sezon)Лагман.(20).avi
Формат : AVI
Формат/Информация : Audio Video Interleave
Размер файла : 334 Мбайт
Продолжительность : 25 м.
Общий поток : 1802 Кбит/сек
Программа кодирования : MEncoder SVN-r33883(20110719-gcc4.5.2)
Библиотека кодирования : MPlayer
Видео
Идентификатор : 0
Формат : MPEG-4 Visual
Профиль формата : Simple@L1
Параметр BVOP формата : Нет
Параметр QPel формата : Нет
Параметр GMC формата : Без точки перехода
Параметр матрицы формата : Default (H.263)
Идентификатор кодека : DX50
Идентификатор кодека/Подсказка : DivX 5
Продолжительность : 25 м.
Битрейт : 1598 Кбит/сек
Ширина : 720 пикселей
Высота : 400 пикселей
Соотношение сторон : 16:9
Частота кадров : 23,976 кадра/сек
Цветовое пространство : YUV
Субдискретизация насыщенности : 4:2:0
Битовая глубина : 8 бит
Тип развёртки : Прогрессивная
Метод сжатия : С потерями
Бит/(Пиксели*Кадры) : 0.231
Размер потока : 296 Мбайт (89%)
Библиотека кодирования : Lavc53.8.0
Аудио
Идентификатор : 1
Формат : MPEG Audio
Версия формата : Version 1
Профиль формата : Layer 3
Режим : Joint stereo
Расширение режима : MS Stereo
Идентификатор кодека : 55
Идентификатор кодека/Подсказка : MP3
Продолжительность : 25 м.
Вид битрейта : Постоянный
Битрейт : 192 Кбит/сек
Каналы : 2 канала
Частота : 44,1 КГц
Метод сжатия : С потерями
Размер потока : 35,6 Мбайт (11%)
Выравнивание : Соединение по промежуткам
Продолжительность промежутка : 26 мс. (0,63 видеокадр)
Время предзагрузки промежутка : 522 мс.
Библиотека кодирования : LAME3.98.4








   Похожие торренты   Торрент   Размер 
В этой теме нет новых непрочитанных сообщений. Специальный корреспондент. Огненная застава. Оставшиеся в живых [эфир от 28.05] (2013) SATRip

33 | 3

1.09 ГБ

В этой теме нет новых непрочитанных сообщений. Огненная Еда [S02] (2014) SATRip

6 | 3

7.98 ГБ

В этой теме нет новых непрочитанных сообщений. Огненная буря / Firestorm / Fung bou (2013) HDRip | L2

1804 | 546

1.46 ГБ

В этой теме нет новых непрочитанных сообщений. Огненная буря / Firestorm / Fung bou (2013) HDRip-AVC | L2

100 | 5

2.18 ГБ

В этой теме нет новых непрочитанных сообщений. Огненная буря / Firestorm / Fung bou (2013) HDTVRip | L2

12 | 2

1.19 ГБ

В этой теме нет новых непрочитанных сообщений. Огненная буря / Firestorm (2013) HDRip от Assassin's Creed | КПК

51 | 40

945.45 МБ

В этой теме нет новых непрочитанных сообщений. Огненная буря / Firestorm / Fung bou (2013) HDTV 720p | L2

27 | 3

1.92 ГБ




Вы не можете начинать темы
Вы не можете отвечать на сообщения
Вы не можете редактировать свои сообщения
Вы не можете удалять свои сообщения
Вы не можете добавлять вложения

Перейти:  
Для Мосгорсуда, Роскомнадзора и рекламодателей: mosgorsud-torrent[собачка]yandex.ru
 Вход
ppkBB3cker v.2 © 2008-2014 @ PPK
[ Time : 0.047s | 14 Queries | GZIP : Off ]

Торрент трекер RUTOR.IN, Не можете зайти на rutor.org? Какой новый адрес рутор? Какое зеркало рутор? Не работает rutor.org и зеркала? Тогда наш торрент специально для вас. Rutor.in неофициальное зеркало rutor. В случае если у Вас заблокирован rutor или вдруг Вы не можете на него зайти, то Вы без труда сможете скачать бесплатно и без рекламы последние новинки кино, игр, сериалов и прочего у нас, на Rutor.in. Не нужно использовать прокси, чтобы зайти на рутор, достаточно воспользоваться нашим ресурсом. Все новые фильмы, игры, сериалы, книги и музыка за 2013 и 2014 годы через торрент бесплатно. Скачивайте фильмы в хорошем качестве, игры для пк, xbox, playstation без регистрации. У нас вы найдете новые Зарубежные сериалы и Русские сериалы 2013, 2014, 2015 годов. Оставайтесь с нами, качайте любимые фильмы, игры, сериалы, книги и музыку.