img image001 image001 image001 image001 image001 image001 image001 image001 image001 image001 image001 image001 image001 image001 image001 image001

Planets Sun Sun Sun
Статистика раздачи
Автор: PriZraK | Размер: 7.98 ГБ | Добавлен: 11 авг 2016
Раздают: 6    Качают: 3
Скачать торрент
Скачать торрент
Описание торрента

СообщениеДобавлено: 11 авг 2016 


Информация о фильме
Название: Огненна Еда
Год выхода: 2014
Жанр: Обучающий, кулинария
В ролях: Влад Пискунов
О фильме:
Известный кулинарный блогер, автор кулинарных книг Влад Пискунов подарит нам более 20-ти рецептов блюд, приготовленных на открытом огне. Целый год мы ждали лета, чтобы отправиться за город и насладиться природой, ведь, безусловно, еда нас сопровождает и здесь! А что может быть вкуснее пищи, приготовленной на открытом огне: на мангале, в гриле или в коптильне! Приготовление «огненной еды» – это стиль жизни!
1. Салат цезарь. Заправка для салата. Канапе-гриль из куриной кожи.
2. Креветки в апельсиново-розмариновом маринаде. Запеченные с голубым сыром груши.
3. Круассан кебаб. Запеченные яблоки.
4. Чатни из ревеня. Шашлык из печени. Карпаччо из свеклы.
5. Кесадия. Гуакамоле.
6. Осьминог по-галисийски. Курица в абрикосовой глазури.
7. Ленивый шашлык. Картофель хассельбак
8. Татаки. Соус для татаки. Шашлычки из лосося в кунжутной обсыпке в японском стиле.
9. Бургер. Домашний майонез. Десерт из маршмеллоу.
10. Кеджери. Клафути.
11. Рулеты из свинины и баклажанов. Гриль сэндвич.
12. Тилапия с прованскими травами. Яблочный тарт
13. Джамбалайя. Шашлык из утиной грудки.
14. Садж из курицы. Куриный шашлык в японском стиле.
15. Соленые лимоны. Индийский кебаб. Куриный шашлык в маринаде из соленых лимонов.
16. Свиная рулька в капусте и яблоках. Бургеры на гречишной лепешке.
17. Корейские пельмени манду. Куриные крылышки барбекю.
18. Рулет из седла барашка. Уха.
19. Гриль ассорти в хлебе. Шашлык по-карски.
20. Фаршированные шампиньоны. Свиная шея в кузовке.
21. Инвольтини из кролика. Соус для ивальтини. Свиные ребра с луком в китайском стиле.
22. Свиные эскалопы с соусом Ромеско. Баранья корейка с соусом Цацики.
23. Медальоны из говядины с соусом чимичурри. Кебабы из индейки с огурцом.
24. Свиная вырезка с луком-пореем. Апельсиновый лосось.
25. Венгерский гуляш. Шашлык косичка.
26. Кролик с фруктами. Бычий хвост.

Страна: Россия
Студия: Кухня ТВ
Продолжительность: 26х ~ 00:26:00
Файл
Кодек: XviD
Качество: SATRip
Видео: 720x400,1531 Кбит/сек
Звук: 2CH,192 Кбит/сек,44,1 КГц
Общее
Полное имя : 14.Садж из курицы. Куриный шашлык в японском стиле.avi
Формат : AVI
Формат/Информация : Audio Video Interleave
Размер файла : 323 Мбайт
Продолжительность : 25 м.
Общий поток : 1736 Кбит/сек
Программа кодирования : MEncoder SVN-r33883(20110719-gcc4.5.2)
Библиотека кодирования : MPlayer
Видео
Идентификатор : 0
Формат : MPEG-4 Visual
Профиль формата : Advanced Simple@L5
Параметр BVOP формата : 2
Параметр QPel формата : Нет
Параметр GMC формата : Без точки перехода
Параметр матрицы формата : Default (H.263)
Идентификатор кодека : XVID
Идентификатор кодека/Подсказка : XviD
Продолжительность : 25 м.
Битрейт : 1531 Кбит/сек
Ширина : 720 пикселей
Высота : 400 пикселей
Соотношение сторон : 16:9
Соотношение сторон в оригинале : 16:9
Частота кадров : 23,976 (23976/1000) кадра/сек
Цветовое пространство : YUV
Субдискретизация насыщенности : 4:2:0
Битовая глубина : 8 бит
Тип развёртки : Прогрессивная
Метод сжатия : С потерями
Бит/(Пиксели*Кадры) : 0.222
Размер потока : 285 Мбайт (88%)
Библиотека кодирования : XviD 1.2.1 (UTC 2008-12-04)
Аудио
Идентификатор : 1
Формат : MPEG Audio
Версия формата : Version 1
Профиль формата : Layer 3
Режим : Joint stereo
Расширение режима : MS Stereo
Идентификатор кодека : 55
Идентификатор кодека/Подсказка : MP3
Продолжительность : 25 м.
Вид битрейта : Постоянный
Битрейт : 192 Кбит/сек
Каналы : 2 канала
Частота : 44,1 КГц
Метод сжатия : С потерями
Задержка видео : 42 мс.
Размер потока : 35,7 Мбайт (11%)
Выравнивание : Соединение по промежуткам
Продолжительность промежутка : 26 мс. (0,63 видеокадр)
Время предзагрузки промежутка : 522 мс.
Библиотека кодирования : LAME3.98.4



   Похожие торренты   Торрент   Размер 
В этой теме нет новых непрочитанных сообщений. Огненная Еда [S01] (2013) SATRip

5 | 1

12.31 ГБ

В этой теме нет новых непрочитанных сообщений. Огненная дрожь / Firequake (2014) DVDRip | P

188 | 32

700.31 МБ

В этой теме нет новых непрочитанных сообщений. Огненная дрожь / Firequake (2014) DVDRip | P

991 | 35

1.46 ГБ

В этой теме нет новых непрочитанных сообщений. Вулканический конец света / Огненная дрожь / Firequake (2014) HDRip | P

99 | 5

1.46 ГБ

В этой теме нет новых непрочитанных сообщений. Огненная стена / Firewall (2006) HDRip от HQ-ViDEO | D

518 | 33

1.46 ГБ

В этой теме нет новых непрочитанных сообщений. Огненная буря / Firestorm / Fung bou (2013) HDRip | L2

1804 | 546

1.46 ГБ

В этой теме нет новых непрочитанных сообщений. S.W.A.T.: Огненная буря / S.W.A.T.: Firefight (2011) BDRip от Rulya74 | P. L2

412 | 101

2.06 ГБ




Вы не можете начинать темы
Вы не можете отвечать на сообщения
Вы не можете редактировать свои сообщения
Вы не можете удалять свои сообщения
Вы не можете добавлять вложения

Перейти:  
 Вход
ppkBB3cker v.2 © 2008-2014 @ PPK
[ Time : 0.025s | 15 Queries | GZIP : Off ]

cron