img image001 image001 image001 image001 image001 image001 image001 image001 image001 image001 image001 image001 image001 image001 image001

Planets Sun Sun Sun
Статистика раздачи
Автор: PriZraK | Размер: 338.64 МБ | Добавлен: 11 авг 2016
Раздают: 9    Качают: 1
Скачать торрент
Скачать торрент
Описание торрента

СообщениеДобавлено: 11 авг 2016 


Информация о фильме
Название: От поплавка до донки
Год выхода: 2007
Жанр: Рыбалка, документальный
Ведущий: Роберт Вишневски
О фильме:
Рыболовный эксперт Роберт Вишневски делится секретами поплавочной и донной ловли. Отправившись на небольшое польское озеро, Роберт рассказывает о разных способах ловли линя и золотого карася. Программа дает зритель представление об основных способах рыбалки на малых озёрах.
Страна: Польша
Продолжительность: 00:23:25
Перевод: Профессиональный (одноголосый)
Файл
Кодек: H.264
Качество: TVRip
Видео: 720x576 (4:3), 1886 Kbps, 25fps
Звук: AAC 48.0 KHz, 128 kbps, 2 ch
General
Complete name : D:От поплавка до донки.mp4
Format : MPEG-4
Format profile : Base Media
Codec ID : isom
File size : 339 MiB
Duration : 23mn 25s
Overall bit rate mode : Variable
Overall bit rate : 2 022 Kbps
Encoded date : UTC 2016-02-21 12:08:17
Tagged date : UTC 2016-02-21 12:08:17
Writing application : XviD4PSP 6.0 / 54.29.105
Video
ID : 1
Format : AVC
Format/Info : Advanced Video Codec
Format profile : High@L3
Format settings, CABAC : Yes
Format settings, ReFrames : 4 frames
Codec ID : avc1
Codec ID/Info : Advanced Video Coding
Duration : 23mn 25s
Bit rate mode : Variable
Bit rate : 1 886 Kbps
Maximum bit rate : 40.0 Mbps
Width : 720 pixels
Height : 576 pixels
Display aspect ratio : 4:3
Frame rate mode : Constant
Frame rate : 25.000 fps
Standard : PAL
Color space : YUV
Chroma subsampling : 4:2:0
Bit depth : 8 bits
Scan type : Progressive
Bits/(Pixel*Frame) : 0.182
Stream size : 316 MiB (93%)
Encoded date : UTC 2016-02-21 12:08:17
Tagged date : UTC 2016-02-21 12:08:17
Audio
ID : 2
Format : AAC
Format/Info : Advanced Audio Codec
Format profile : LC
Codec ID : 40
Duration : 23mn 24s
Bit rate mode : Constant
Bit rate : 128 Kbps
Channel(s) : 2 channels
Channel positions : Front: L R
Sampling rate : 48.0 KHz
Compression mode : Lossy
Stream size : 21.5 MiB (6%)
Encoded date : UTC 2016-02-21 12:08:17
Tagged date : UTC 2016-02-21 12:08:17



   Похожие торренты   Торрент   Размер 
В этой теме нет новых непрочитанных сообщений. Морская прогулка / Донки Панч / Donkey punch (2008) DVDRip

0 | 2

741.48 МБ

В этой теме нет новых непрочитанных сообщений. Сибирская рыбалка. Выпуск 6. Эволюция донки (2008) DVDRip от ExKinoRay

19 | 26

697.43 МБ

В этой теме нет новых непрочитанных сообщений. Я; Ты / Myself; Yourself [13 из 13] (2007) TVRip

2 | 2

2.51 ГБ

В этой теме нет новых непрочитанных сообщений. Тайны Апокалипсиса (2007) TVRip

20 | 5

4.76 ГБ

В этой теме нет новых непрочитанных сообщений. Моя мама - снегурочка (2007) TVRip

11 | 4

699.76 МБ

В этой теме нет новых непрочитанных сообщений. Малахов+ (2006-2007) TVRip

0 | 7

46.98 ГБ

В этой теме нет новых непрочитанных сообщений. Жириновский (2007-2009) TVRip

15 | 11

263 МБ




Вы не можете начинать темы
Вы не можете отвечать на сообщения
Вы не можете редактировать свои сообщения
Вы не можете удалять свои сообщения
Вы не можете добавлять вложения

Перейти:  
Для Мосгорсуда, Роскомнадзора и рекламодателей: mosgorsud-torrent[собачка]yandex.ru
 Вход
ppkBB3cker v.2 © 2008-2014 @ PPK
[ Time : 0.054s | 15 Queries | GZIP : Off ]

cron