img image001 image001 image001 image001 image001 image001 image001 image001 image001 image001 image001 image001 image001 image001 image001

Planets Sun Sun Sun
Статистика раздачи
Автор: PriZraK | Размер: 11.22 ГБ | Добавлен: 12 авг 2016
Раздают: 16    Качают: 6
Скачать торрент
Скачать торрент
Описание торрента

СообщениеДобавлено: 12 авг 2016 


Информация о фильме
Название: Еда, я люблю тебя
Год выхода: 2016
Жанр: Обучающий, тв-передача, кулинария
В ролях:
Владимир Дантес – популярный певец, победитель шоу «Фабрика звезд-2», участник группы «ДиО.фильмы». Считает, что хорошая еда не обязательно должна быть дорогой и часто оказывается прав.
Эдуард Мацаберидзе - комик stand up, актер, участник шоу «Убойная лига», талантливый ведущий. По образованию – менеджер пищевой промышленности, повар-любитель, что позволяет ему авторитетно критиковать любую кухню.
Николай Камка – комик stand up, участник шоу «Убойная лига», актер. Полюбил еду в день своего рождения, не представляет жизни без средиземноморской кухни и восточной халвы.
Молодые, обаятельные и острые на язык ребята расскажут о еде нормальным языком. С такими ведущими даже пресное блюдо захочется попробовать!
О фильме:
«Еда, я люблю тебя!» - первое кулинарное тревел-шоу и лучший путеводитель по самым необычным, аппетитным, вкусным достопримечательностям по всему миру.
В каждом городе жребий решает, кто из троих ведущих отправится в шикарный ресторан, кому предстоит найти лучшую уличную еду, а кто будет самостоятельно готовить блюдо национальной домашней кухни в гостеприимной семье местных жителей. Друзья попробуют изысканные деликатесы и недорогие шедевры простой кухни, и расскажут о еде так, что ее непременно захочется попробовать!
01.Гавана. Куба
Куба - страна, свободная от предрассудков. Мекка раритетных автомобилей и последний уголок социалистического очарования. На острове, затерянном во времени, Николай Камка пойдет по ресторанам, уличную еду оценит Владимир Дантес, а Эд Мацаберидзе попадет в семью. Кубинская кухня - это компромисс между множеством запретов и сотней вариаций на тему курицы с рисом и фасолью. Попробовать говядину или морепродукты здесь могут только самые смелые или обеспеченные. И, как заметили ведущие, дорогая еда не всегда оказывается самой вкусной. В этом выпуске друзья узнают, как готовили еду в Гаване до революции, где можно попробовать фарш по-креольски, что из кубинских блюд похоже на русские беляши и чем повар испортит паэлью с морепродуктами?
02.Варадеро. Куба
Варадеро – самый буржуазный курорт Кубы. Излюбленное место для недорогого отдыха среди американцев. Сказочно красивый город славится своими полями для гольфа, роскошными отелями и чистейшими пляжами. Поэтому друзья понадеялись, что хоть в этом популярном уголке их не разочарует местная кухня. Владимиру достался обед в семье, Николай будет пробовать фастфуд, а Эд отправится по ресторанам. Но сумеют ли ведущие совершить здесь хоть какие-то кулинарные открытия? Что больше всего понравится предвзятому Эдуарду в «роскошных» ресторанах: суп, морепродукты, флан или соус из магазина? Каким расстройством закончится знакомство Николая с уличной едой? И чему обрадуется Владимир, оказавшись в гостеприимной семье?

Официальный сайт
Страна: Россия
Студия: Пятница
Продолжительность: ~ 00:46:00 выпуск
Перевод: Не требуется
Файл
Кодек: XviD / MP3
Качество: SATRip
Видео: MPEG4, XviD, 704x400 (16:9), 25.000 fps, 1600 Kbps (0.227 bit/pixel)
Звук: MP3, 44.1 KHz, 2 ch, 128 Kbps, CBR
General
Complete name : 01.Гавана. Куба.avi
Format : AVI
Format/Info : Audio Video Interleave
File size : 602 MiB
Duration : 48mn 26s
Overall bit rate : 1 738 Kbps
Writing application : VirtualDubMod 1.5.10.3 | www.virtualdub-fr.org || (build 2550/release)
Writing library : VirtualDubMod build 2550/release
Video
ID : 0
Format : MPEG-4 Visual
Format profile : Advanced Simple@L5
Format settings, BVOP : 1
Format settings, QPel : No
Format settings, GMC : No warppoints
Format settings, Matrix : Default (H.263)
Codec ID : XVID
Codec ID/Hint : XviD
Duration : 48mn 26s
Bit rate : 1 600 Kbps
Width : 704 pixels
Height : 400 pixels
Display aspect ratio : 16:9
Frame rate : 25.000 fps
Color space : YUV
Chroma subsampling : 4:2:0
Bit depth : 8 bits
Scan type : Progressive
Compression mode : Lossy
Bits/(Pixel*Frame) : 0.227
Stream size : 554 MiB (92%)
Writing library : XviD 1.2.1 (UTC 2008-12-04)
Audio
ID : 1
Format : MPEG Audio
Format version : Version 1
Format profile : Layer 3
Codec ID : 55
Codec ID/Hint : MP3
Duration : 48mn 26s
Bit rate mode : Constant
Bit rate : 128 Kbps
Channel(s) : 2 channels
Sampling rate : 48.0 KHz
Compression mode : Lossy
Stream size : 44.4 MiB (7%)
Alignment : Aligned on interleaves
Interleave, duration : 40 ms (1.00 video frame)
Interleave, preload duration : 504 ms
Writing library : LAME3.98r
Encoding settings : -m s -V 4 -q 2 -lowpass 17 -b 128



   Похожие торренты   Торрент   Размер 
В этой теме нет новых непрочитанных сообщений. Еда, я люблю тебя [03x01-02] (2016) SATRip

1 | 7

13.58 ГБ

В этой теме нет новых непрочитанных сообщений. Я люблю своего мужа [01-04 из 04] (2016) SATRip-AVC от Files-x

15 | 0

2.24 ГБ

В этой теме нет новых непрочитанных сообщений. Я люблю своего мужа [01-04 из 04] (2016) SATRip от Files-x

205 | 13

2.35 ГБ

В этой теме нет новых непрочитанных сообщений. Я люблю своего мужа [01-04 из 04] (2016) SATRip от GeneralFilm

49 | 0

1.45 ГБ

В этой теме нет новых непрочитанных сообщений. Люблю, потому что люблю (2012) IPTVRip от Files-x

48 | 9

1.31 ГБ

В этой теме нет новых непрочитанных сообщений. Я тебя люблю, я тоже не люблю / Я тебя люблю, я тебя тоже...нет / Je t'aime moi non plus (1976) DVDRip | L1 от AndreSweet

42 | 5

1.37 ГБ

В этой теме нет новых непрочитанных сообщений. Такая работа [03x01-35 из 40] (2016) SATRip-AVC от ExKinoRay

38 | 165

19.31 ГБ




Вы не можете начинать темы
Вы не можете отвечать на сообщения
Вы не можете редактировать свои сообщения
Вы не можете удалять свои сообщения
Вы не можете добавлять вложения

Перейти:  
Для Мосгорсуда, Роскомнадзора и рекламодателей: mosgorsud-torrent[собачка]yandex.ru
 Вход
ppkBB3cker v.2 © 2008-2014 @ PPK
[ Time : 0.114s | 15 Queries | GZIP : Off ]

Торрент трекер RUTOR.IN, Не можете зайти на rutor.org? Какой новый адрес рутор? Какое зеркало рутор? Не работает rutor.org и зеркала? Тогда наш торрент специально для вас. Rutor.in неофициальное зеркало rutor. В случае если у Вас заблокирован rutor или вдруг Вы не можете на него зайти, то Вы без труда сможете скачать бесплатно и без рекламы последние новинки кино, игр, сериалов и прочего у нас, на Rutor.in. Не нужно использовать прокси, чтобы зайти на рутор, достаточно воспользоваться нашим ресурсом. Все новые фильмы, игры, сериалы, книги и музыка за 2013 и 2014 годы через торрент бесплатно. Скачивайте фильмы в хорошем качестве, игры для пк, xbox, playstation без регистрации. У нас вы найдете новые Зарубежные сериалы и Русские сериалы 2013, 2014, 2015 годов. Оставайтесь с нами, качайте любимые фильмы, игры, сериалы, книги и музыку.
cron