img image001 image001 image001 image001 image001 image001 image001 image001 image001 image001 image001 image001 image001 image001 image001 image001

Planets Sun Sun Sun
Статистика раздачи
Автор: PriZraK | Размер: 282.21 МБ | Добавлен: 11 авг 2016
Раздают: 0    Качают: 1
Скачать торрент
Скачать торрент
Описание торрента

СообщениеДобавлено: 11 авг 2016 


Информация о фильме
Название: Ловим плотву
Жанр: Рыбалка, документальный
Год выхода: 2010
О фильме:
Искусственное Чорштынское озеро, расположенное в горном районе Польши Подгалье, возникло в прошлом веке после постройки дамбы на реке Дунаец. Оно прекрасно вписалось в пейзаж, открыв новые рыболовные возможности для всего региона. Помимо местных жителей сюда приезжают рыбаки из самых разных мест. Что использовать – фидер или поплавочную удочку? Как выбрать хорошую прикормку и уловистую приманку? Как совершенствовать мастерство, чтобы от мелкой плотвички перейти к крупным экземплярам? Ответы на все эти вопросы можно узнать, посмотрев фильм.
Страна: Польша
Перевод: Профессиональный (одноголосый)
Продолжительность: 00:21:26
Файл
Кодек: XviD
Качество: TVRip
Видео: 720x400 (16:9), 1700 Kbps, 25fps
Звук: MP3, 128 Kbps, 2 channels, 48.0 KHz
D:Ловим плотву.avi
Format : AVI
Format/Info : Audio Video Interleave
File size : 282 MiB
Duration : 21mn 26s
Overall bit rate : 1 841 Kbps
Writing application : XviD4PSP 6.0 / 54.29.105
Video
ID : 1
Format : MPEG-4 Visual
Format profile : Advanced Simple@L5
Format settings, BVOP : 1
Format settings, QPel : No
Format settings, GMC : No warppoints
Format settings, Matrix : Default (H.263)
Codec ID : XVID
Codec ID/Hint : XviD
Duration : 21mn 26s
Bit rate : 1 700 Kbps
Width : 720 pixels
Height : 400 pixels
Display aspect ratio : 16:9
Frame rate : 25.000 fps
Color space : YUV
Chroma subsampling : 4:2:0
Bit depth : 8 bits
Scan type : Progressive
Compression mode : Lossy
Bits/(Pixel*Frame) : 0.236
Stream size : 261 MiB (92%)
Writing library : XviD 64
Audio
ID : 0
Format : MPEG Audio
Format version : Version 1
Format profile : Layer 3
Mode : Joint stereo
Mode extension : MS Stereo
Codec ID : 55
Codec ID/Hint : MP3
Duration : 21mn 25s
Bit rate mode : Constant
Bit rate : 128 Kbps
Channel(s) : 2 channels
Sampling rate : 48.0 KHz
Compression mode : Lossy
Stream size : 19.6 MiB (7%)
Alignment : Aligned on interleaves
Interleave, duration : 40 ms (1.00 video frame)
Writing library : LAME3.99.4



   Похожие торренты   Торрент   Размер 
В этой теме нет новых непрочитанных сообщений. Диалоги о рыбалке. Ловим плотву (А. Гусев) [2005, документальный, рыбалка, SATRip]

4 | 0

330.34 МБ

В этой теме нет новых непрочитанных сообщений. Амазонки из глубинки [01-04 из 04] (2010) TVRip

3 | 10

1.97 ГБ

В этой теме нет новых непрочитанных сообщений. Я предпочитаю рай / Preferisco il paradiso (2010) TVRip | L1

6 | 0

2.52 ГБ

В этой теме нет новых непрочитанных сообщений. Чистосердечное признание. Русский мат (2010) TVRip

0 | 1

204.07 МБ

В этой теме нет новых непрочитанных сообщений. Случайный муж / Un mari de trop (2010) TVRip | L1

5 | 0

1.41 ГБ

В этой теме нет новых непрочитанных сообщений. Адская кухня / Hell's Kitchen [S07] (2010) TVRip | Муз-ТВ

19 | 5

5.74 ГБ

В этой теме нет новых непрочитанных сообщений. Побег / Breakout [S01-02] (2010-2012) SATRip, TVRip

4 | 4

10.03 ГБ




Вы не можете начинать темы
Вы не можете отвечать на сообщения
Вы не можете редактировать свои сообщения
Вы не можете удалять свои сообщения
Вы не можете добавлять вложения

Перейти:  
 Вход
ppkBB3cker v.2 © 2008-2014 @ PPK
[ Time : 0.031s | 19 Queries | GZIP : Off ]

cron