img image001 image001 image001 image001 image001 image001 image001 image001 image001 image001 image001 image001 image001 image001 image001

Planets Sun Sun Sun
Статистика раздачи
Автор: PriZraK | Размер: 2.75 ГБ | Добавлен: 29 сен 2016
Раздают: 39    Качают: 4
Скачать торрент
Скачать торрент
Описание торрента

СообщениеДобавлено: 29 сен 2016 


Информация о фильме
Название: Лазерсон. Гриль
Год выхода: 2016
Жанр: Обучающий, телепередача, кулинария
Ведущий: Илья Лазерсон
О фильме:
Рейнджеры и достопочтенные граждане! Прошёл слух, что у нас на ранчо появился самый известный и самый главный ковбой долины! Его искали по всей стране, объявляли награду за его голову и мечтали увидеть здесь на нашем восхитительном ранчо — теперь-то он от нас никуда не денется. В воздухе уже запахло жареным, и это не удивительно, ведь старина Лазерсон отложил в сторону кольт и собирает всех желающих у гриля — отведать самые лучшие блюда на огне и послушать увлекательные истории.
01.Куриная печёнка с соусом из глинтвейна.
Еда, приготовленная на гриле, обладает поистине волшебным вкусом В чём именно секрет – доподлинно неизвестно.
Но даже банальная куриная печёнка при правильном подходе легко превращается в шикарное блюдо!
02.Свиные рёбрышки в томатном маринаде.
Это блюдо – классика жанра, ведь гриль и свиные рёбрышки просто созданы друг для друга. А если правильно замариновать, грамотно обжарить и интересно
дополнить – кулинарный шедевр вам обеспечен.
03.Версия чили кон карне.
Одно из самых любимых блюд маэстро, к которому он нашёл свой собственный подход. И почему бы не приготовить его на гриле, ведь для этого есть все условия? Легко! Пара тонкостей и нюансов – и будет бомба!
04.Сёмга с можжевеловыми огурцами.
Любое блюдо становится намного вкуснее, если его готовить на природе. Только представьте себе: аппетитный отпечаток решётки
на кусочке рыбы, неповторимый аромат запечённой на углях картошки Как тут можно устоять?
05.Двойной стейк.
Пожалуй, первое блюдо, которое ассоциируется с грилем, – это, конечно, стейк. Сочный кусок мяса с красивым рисунком от решётки и просто
неимоверным ароматом - красота! Но маэстро удвоит удовольствие – это будет двойной стейк!
06.Копчёный судак с горчичным соусом.
Рыба горячего копчения, приготовленная своими руками, вызывает не только аппетит у гостей, но и неимоверное чувство гордости у того, кто её приготовил. Поэтому кулинарить на природе – двойное удовольствие!
07.Фаршированная куриная грудка с тёплым салатом.
Ищите интересные кулинарные сочетания? Тогда обязательно обратите внимание на это блюдо в дальневосточном стиле. Не упустите отличный шанс приготовить что-то новенькое на гриле.

Официальный сайт
Страна: Россия
Телеканал: Еда ТВ
Продолжительность: ~ 00:28:00 выпуск
Перевод: Не требуется
Файл
Кодек: XviD / MP3
Качество: HDTVRip
Видео: XviD, ~ 2300 Kbps, 720x400 (16:9), 0.319 bit/pixel
Звук: MP3, 2 ch, 128 Kbps, CRB
General
Complete name : 01.Куриная печёнка с соусом из глинтвейна.avi
Format : AVI
Format/Info : Audio Video Interleave
File size : 384 MiB
Duration : 22mn 2s
Overall bit rate : 2 438 Kbps
Writing application : VirtualDubMod 1.5.10.3 | www.virtualdub-fr.org || (build 2550/release)
Writing library : VirtualDubMod build 2550/release
Video
ID : 0
Format : MPEG-4 Visual
Format profile : Advanced Simple@L5
Format settings, BVOP : 1
Format settings, QPel : No
Format settings, GMC : No warppoints
Format settings, Matrix : Default (H.263)
Codec ID : XVID
Codec ID/Hint : XviD
Duration : 22mn 2s
Bit rate : 2 300 Kbps
Width : 720 pixels
Height : 400 pixels
Display aspect ratio : 16:9
Frame rate : 25.000 fps
Color space : YUV
Chroma subsampling : 4:2:0
Bit depth : 8 bits
Scan type : Progressive
Compression mode : Lossy
Bits/(Pixel*Frame) : 0.319
Stream size : 362 MiB (94%)
Writing library : XviD 1.2.1 (UTC 2008-12-04)
Audio
ID : 1
Format : MPEG Audio
Format version : Version 1
Format profile : Layer 3
Codec ID : 55
Codec ID/Hint : MP3
Duration : 22mn 2s
Bit rate mode : Constant
Bit rate : 128 Kbps
Channel(s) : 2 channels
Sampling rate : 48.0 KHz
Compression mode : Lossy
Stream size : 20.2 MiB (5%)
Alignment : Aligned on interleaves
Interleave, duration : 40 ms (1.00 video frame)
Interleave, preload duration : 504 ms
Writing library : LAME3.98r
Encoding settings : -m s -V 4 -q 2 -lowpass 17 -b 128



   Похожие торренты   Торрент   Размер 
В этой теме нет новых непрочитанных сообщений. Лазерсон. Любимое [01-71] (2012-2014) WEB-DL 720p

46 | 31

26.3 ГБ

В этой теме нет новых непрочитанных сообщений. А. Кривко - Шашлык. Мангал. Барбекю. Гриль (2012) PDF

327 | 29

18.71 МБ

В этой теме нет новых непрочитанных сообщений. Гриль-бар «Порох» / The Spitfire Grill (1996) DVDRip

2 | 1

1.26 ГБ

В этой теме нет новых непрочитанных сообщений. Мировой повар. Илья Лазерсон [001-132] (2012-2015) WEB-DL 720p

5 | 12

56.42 ГБ

В этой теме нет новых непрочитанных сообщений. Фестиваль Музыка Мира в ЦДХ: Наеховичи / Рада & Терновник / Ва-Та-Га / Мила Кикина / Владимир Лазерсон [13.05] (2005) 2xDVD5

5 | 6

8.2 ГБ

В этой теме нет новых непрочитанных сообщений. Мрачный закат / Гриль-бар "Сансет" / Sunset Grill (1993) DVDRip от olegek70

0 | 2

2.05 ГБ

В этой теме нет новых непрочитанных сообщений. Евровидение 2016. Финал: Отдельные выступления / Eurovision 2016: Final (2016) HDTVRip 1080p от HDLine

2 | 2

11.87 ГБ




Вы не можете начинать темы
Вы не можете отвечать на сообщения
Вы не можете редактировать свои сообщения
Вы не можете удалять свои сообщения
Вы не можете добавлять вложения

Перейти:  
Для Мосгорсуда, Роскомнадзора и рекламодателей: mosgorsud-torrent[собачка]yandex.ru
 Вход
ppkBB3cker v.2 © 2008-2014 @ PPK
[ Time : 0.017s | 14 Queries | GZIP : Off ]

Торрент трекер RUTOR.IN, Не можете зайти на rutor.org? Какой новый адрес рутор? Какое зеркало рутор? Не работает rutor.org и зеркала? Тогда наш торрент специально для вас. Rutor.in неофициальное зеркало rutor. В случае если у Вас заблокирован rutor или вдруг Вы не можете на него зайти, то Вы без труда сможете скачать бесплатно и без рекламы последние новинки кино, игр, сериалов и прочего у нас, на Rutor.in. Не нужно использовать прокси, чтобы зайти на рутор, достаточно воспользоваться нашим ресурсом. Все новые фильмы, игры, сериалы, книги и музыка за 2013 и 2014 годы через торрент бесплатно. Скачивайте фильмы в хорошем качестве, игры для пк, xbox, playstation без регистрации. У нас вы найдете новые Зарубежные сериалы и Русские сериалы 2013, 2014, 2015 годов. Оставайтесь с нами, качайте любимые фильмы, игры, сериалы, книги и музыку.