img image001 image001 image001 image001 image001 image001 image001 image001 image001 image001 image001 image001 image001 image001 image001

Planets Sun Sun Sun
Статистика раздачи
Автор: Снежана | Размер: 696.28 МБ | Добавлен: 05 авг 2013
Раздают: 251    Качают: 6
Скачать торрент
Скачать торрент
Описание торрента

СообщениеДобавлено: 05 авг 2013 

Мертвый Космос - Анимированный комикс
Dead Space - Animated Comics
[Full Series]
(2008)
HDRip-AVC 720p [Hi10P] от FREEISLAND



Год выхода: 2008
Жанр: ужасы, фантастика, триллер, драма
Сценарист: Antony Johnston
Художник: Ben Templesmith
Описание:
Комикс Dead Space является своеобразным приквелом к приквелу, то есть предысторией мультфильма Dead Space: Downfall, который в свою очередь является предысторией игры Dead Space.

Серия комиксов, основанная на вселенной игры. Комиксы призваны рассказать историю знакомства шахтёров с некроморфами, а также показать процесс превращения Ишимуры в космический вариант Содома и Гоморры.

Страна: США
Продолжительность: 45 м. 59 с.
Перевод: Профессиональный (многоголосый) ["Игромания"]

Примечание:
Сделана разбивка на эпизоды.
На видео присутствует хард-логотип сайта - источника HD-видео.
Внимание!
Рип в High 10 Profile, в настоящее время не поддерживается большинством аппаратных проигрывателей.
Для корректного воспроизведения может потребоваться обновление ПО.
Владельцам несовместимого железа просьба не беспокоить, на трекере есть альтернативные релизы.

Качество: HDRip-AVC 720p Hi10P (SSIM: 0.9894575)
Исходник: HD 720p
Контейнер: MKV
Видео кодек: x264 High10@L5.0
Аудио кодек: AC-3
Видео: AVC at 1675 Кбит/сек, 1280 x 720 (1.778) at 23.976 fps
Аудио RUS: AC-3 at 224 Кбит/сек, 2 канала, 48,0 КГц
Аудио ENG: AC-3 at 224 Кбит/сек, 2 канала, 48,0 КГц
Субтитры: нет


Общее
Уникальный идентификатор : 217961586173814017576902467082369499079 (0xA3F9DFE2C27D01B39495477349BDFFC7)
Полное имя : Dead Space - Animated Comic [Full Series] (2008) HDRip-Hi10P 720p.mkv
Формат : Matroska
Версия формата : Version 2
Размер файла : 696 Мбайт
Продолжительность : 45 м.
Общий поток : 2117 Кбит/сек
Название фильма : релиз от FREEISLAND.ORG
Дата кодирования : UTC 2012-04-21 10:35:58
Программа кодирования : mkvmerge v5.5.0 ('Healer') built on Apr 6 2012 21:43:24
Библиотека кодирования : libebml v1.2.3 + libmatroska v1.3.0

Видео
Идентификатор : 1
Формат : AVC
Формат/Информация : Advanced Video Codec
Профиль формата : High 10@L5.0
Параметр CABAC формата : Да
Параметр ReFrames формата : 16 кадров
Идентификатор кодека : V_MPEG4/ISO/AVC
Продолжительность : 45 м.
Битрейт : 1675 Кбит/сек
Ширина : 1280 пикселей
Высота : 720 пикселей
Соотношение сторон : 16:9
Частота кадров : 23,976 кадра/сек
Цветовое пространство : YUV
Субдискретизация насыщенности : 4:2:0
Битовая глубина : 10 бит
Тип развёртки : Прогрессивная
Бит/(Пиксели*Кадры) : 0.076
Размер потока : 535 Мбайт (77%)
Библиотека кодирования : x264 core 123 r2194+664+26 631fa42 tMod [10-bit@all X86_64]
Настройки программы : cabac=1 / ref=16 / deblock=1:1:1 / analyse=0x3:0x133 / me=umh / subme=11 / psy=1 / fade_compensate=0.00 / psy_rd=1.05:0.10 / mixed_ref=1 / me_range=64 / chroma_me=1 / trellis=2 / 8x8dct=1 / cqm=0 / deadzone=21,11 / fast_pskip=0 / chroma_qp_offset=-3 / threads=12 / sliced_threads=0 / nr=0 / decimate=1 / interlaced=0 / bluray_compat=0 / constrained_intra=0 / fgo=0 / bframes=16 / b_pyramid=2 / b_adapt=2 / b_bias=0 / direct=3 / weightb=1 / open_gop=0 / weightp=2 / keyint=240 / keyint_min=24 / scenecut=40 / intra_refresh=0 / rc=2pass / mbtree=0 / bitrate=1675 / ratetol=1.0 / qcomp=1.00 / qpmin=0 / qpmax=48 / qpstep=4 / cplxblur=20.0 / qblur=0.5 / ip_ratio=1.40 / pb_ratio=1.30 / aq=3:1.00
Default : Да
Forced : Нет

Аудио #1
Идентификатор : 2
Формат : AC-3
Формат/Информация : Audio Coding 3
Расширение режима : CM (complete main)
Идентификатор кодека : A_AC3
Продолжительность : 45 м.
Вид битрейта : Постоянный
Битрейт : 224 Кбит/сек
Каналы : 2 канала
Расположение каналов : Front: L R
Частота : 48,0 КГц
Битовая глубина : 16 бит
Метод сжатия : С потерями
Размер потока : 73,7 Мбайт (11%)
Язык : Russian
Default : Да
Forced : Нет

Аудио #2
Идентификатор : 3
Формат : AC-3
Формат/Информация : Audio Coding 3
Расширение режима : CM (complete main)
Идентификатор кодека : A_AC3
Продолжительность : 45 м.
Вид битрейта : Постоянный
Битрейт : 224 Кбит/сек
Каналы : 2 канала
Расположение каналов : Front: L R
Частота : 48,0 КГц
Битовая глубина : 16 бит
Метод сжатия : С потерями
Размер потока : 73,7 Мбайт (11%)
Язык : English
Default : Нет
Forced : Нет

Меню
00:00:00.000 : ru:[00] Начало
00:00:41.250 : ru:[01] Эпизод первый
00:07:24.152 : ru:[02] Эпизод второй
00:16:17.561 : ru:[03] Эпизод третий
00:25:09.843 : ru:[04] Эпизод четвёртый
00:33:56.870 : ru:[05] Эпизод пятый
00:40:27.334 : ru:[06] Эпизод шестой















Релиз от:

Если у вас возникают вопросы типа:
-почему у меня есть звук и отсутствует изображение?
-почему у меня рассыпается картинка?
-почему у меня картинка фонит синевой или зеленью?
-зачем и кому всё это нужно?
и тому подобные, читаем FAQ.
ссылка на FAQ запрещена правилами.

По этому, гуглим на тему спойлера (Что такое 10-ти битное видео (High 10 Profile - Hi10P), и как его смотреть?).



   Похожие торренты   Торрент   Размер 
В этой теме нет новых непрочитанных сообщений. Мёртвый Космос: Последствия / Dead Space: Aftermath (2011) HDRip

40 | 6

1.37 ГБ

В этой теме нет новых непрочитанных сообщений. Мёртвый Космос: Последствия / Dead Space: Aftermath (2011) BDRip 720p

75 | 37

2.65 ГБ

В этой теме нет новых непрочитанных сообщений. Мертвый космос / Dead Space (1990) DVDRip | A

103 | 11

1.46 ГБ

В этой теме нет новых непрочитанных сообщений. Мертвый космос / Dead Space (1991) DVDRip

14 | 7

743.88 МБ

В этой теме нет новых непрочитанных сообщений. Мёртвый Космос: Последствия / Dead Space: Aftermath (2011) BDRemux

55 | 6

16.11 ГБ

В этой теме нет новых непрочитанных сообщений. Мёртвый Космос: Последствия / Dеad Space: Aftermath (2011) HDRip

33 | 3

1.36 ГБ

В этой теме нет новых непрочитанных сообщений. Космос: Территория смерти / Dead Space: Downfall (2008) BDRip-AVC 720p от DHT-Movies

17 | 8

2.49 ГБ




Вы не можете начинать темы
Вы не можете отвечать на сообщения
Вы не можете редактировать свои сообщения
Вы не можете удалять свои сообщения
Вы не можете добавлять вложения

Перейти:  
Для Мосгорсуда, Роскомнадзора и рекламодателей: mosgorsud-torrent[собачка]yandex.ru
 Вход
ppkBB3cker v.2 © 2008-2014 @ PPK
[ Time : 0.068s | 14 Queries | GZIP : Off ]

Торрент трекер RUTOR.IN, Не можете зайти на rutor.org? Какой новый адрес рутор? Какое зеркало рутор? Не работает rutor.org и зеркала? Тогда наш торрент специально для вас. Rutor.in неофициальное зеркало rutor. В случае если у Вас заблокирован rutor или вдруг Вы не можете на него зайти, то Вы без труда сможете скачать бесплатно и без рекламы последние новинки кино, игр, сериалов и прочего у нас, на Rutor.in. Не нужно использовать прокси, чтобы зайти на рутор, достаточно воспользоваться нашим ресурсом. Все новые фильмы, игры, сериалы, книги и музыка за 2013 и 2014 годы через торрент бесплатно. Скачивайте фильмы в хорошем качестве, игры для пк, xbox, playstation без регистрации. У нас вы найдете новые Зарубежные сериалы и Русские сериалы 2013, 2014, 2015 годов. Оставайтесь с нами, качайте любимые фильмы, игры, сериалы, книги и музыку.