img image001 image001 image001 image001 image001 image001 image001 image001 image001 image001 image001 image001 image001 image001 image001

Planets Sun Sun Sun
Статистика раздачи
Автор: Снежана | Размер: 224.27 МБ | Добавлен: 05 авг 2013
Раздают: 5    Качают: 2
Скачать торрент
Скачать торрент
Описание торрента

СообщениеДобавлено: 05 авг 2013 


Жанр: Сказка
Год выпуска: 2008 г.
Год записи: 1980 г.
Издательство: Мелодия
Серия: Мелодия - детям
Номер по каталогу: Mel CD 50 01329
Релиз: ley-barmaley
Аудио кодек: APE
Тип рипа: image +.cue +.log
Битрейт: lossless
Тип : Аудиоспектакль
Общее время звучания: 00:50:05
Наличие сканов в содержимом раздачи: есть
Аннотация:
"Мелодия" продолжает реставрировать знаменитые и любимые многими слушателями записи, выходившие на пластинках в 60-80-е годы XX века.
Меняется время, меняется государство, его устройство. Но люди - не меняются. И как во все времена и при любых правителях есть честность, преданность, щедрость, доброта, так всегда, к сожалению, будут идти с ними рядом жадность, предательство, подлость и трусость.
Время окрашивает произведения искусства в свои оттенки. И то, что вчера было важным и актуальным, сегодня нам кажется порой нелепым и смешным. Но помнить свою историю нужно. И важно открывать новому поколению суть вещей, учить чувствовать ее сквозь то наносное, что пройдет.
Музыка Ю. Буцко, стихи В.Берестова
Переводчики: Михаил Салье, Ирина Татаринова
Инсценировка С.Василевского
Режиссер С.Василевский
Действующие лица и исполнители:
Рассказчик Взрослый Яков – Всеволод Соболев
Яков, Карлик Нос – Зоя Пыльнова
Хана, мать Якова – Ольга Широкова
Фридрих, отец Якова – Владимир Матюхин
Старуха-колдунья – Татьяна Лукьянова
Герцог, Брадобрей – Юрий Смирнов,
Гусыня Мими – Марина Полицеймако
Смотритель замка – Владимир Кондратьев
Начальник кухни – Игорь Петров
Инструментальный ансамбль п/у А.Корнева

Exact Audio Copy V0.99 prebeta 5 from 4. May 2009
Отчёт EAC об извлечении, выполненном 18. октября 2010, 20:08
Various / Karlik Nos (Rip by ley-barmaley)
Дисковод: ASUS DRW-1814BL Adapter: 0 ID: 0
Режим чтения : Достоверность
Использование точного потока : Да
Отключение кэша аудио : Да
Использование указателей C2 : Нет
Коррекция смещения при чтении : 6
Способность читать области Lead-in и Lead-out : Нет
Заполнение пропущенных сэмплов тишиной : Да
Удаление блоков с тишиной в начале и конце : Нет
При вычислениях CRC использовались нулевые сэмплы : Да
Интерфейс : Встроенный Win32-интерфейс для Win NT/2000
Выходной формат : Внутренние WAV-операции
Формат сэмплов : 44.100 Гц; 16 бит; стерео
TOC извлечённого CD
Трек | Старт | Длительность | Начальный сектор | Конечный сектор
---------------------------------------------------------------------
1 | 0:00.00 | 11:19.70 | 0 | 50994
2 | 11:19.70 | 12:42.57 | 50995 | 108201
3 | 24:02.52 | 11:58.48 | 108202 | 162099
4 | 36:01.25 | 14:04.27 | 162100 | 225426
Характеристики диапазона извлечения и сообщения об ошибках
Выбранный диапазон
Имя файла G:Karlik Nos (Rip by ley-barmaley).wav
Пиковый уровень 88.1 %
Качество диапазона 100.0 %
CRC копии 2C1172DC
Копирование... OK
Ошибок не произошло
AccurateRip: сводка
Трек 1 нет в базе данных
Трек 2 нет в базе данных
Трек 3 нет в базе данных
Трек 4 нет в базе данных
Ни одного трека нет в базе AccurateRip
Конец отчёта


-----------------------
DON'T MODIFY THIS FILE
-----------------------
PERFORMER: auCDtect Task Manager, ver. 1.5.1RC3 build 1.5.1.4
Copyright (c) 2008-2010 y-soft. All rights reserved
http://y-soft.org
ANALYZER: auCDtect: CD records authenticity detector, version 0.8.2
Copyright (c) 2004 Oleg Berngardt. All rights reserved.
Copyright (c) 2004 Alexander Djourik. All rights reserved.
FILE: Karlik Nos (Rip by ley-barmaley).ape
Size: 224189572 Hash: 7DE654F69E10A79A8E7E6C0F79E47DD2 Accuracy: -m0
Conclusion: CDDA 100%
Signature: 96353435E567A1F26C60592D57ACB79EAB165E2C



REM GENRE "Инсценировка"
REM DATE 2007
REM DISCID 2A0BBD04
REM COMMENT "ExactAudioCopy v0.99pb5"
PERFORMER "Various"
TITLE "Карлик Нос (Мелодия, MEL CD 50 01329)"
FILE "Karlik Nos (Rip by ley-barmaley).ape" WAVE
TRACK 01 AUDIO
TITLE "Карлик Нос, часть 1"
PERFORMER "Всеволод Соболев, Зоя Пыльнова, Ольга Широкова и другие"
INDEX 01 00:00:00
TRACK 02 AUDIO
TITLE "Карлик Нос, часть 2"
PERFORMER "Всеволод Соболев, Зоя Пыльнова, Ольга Широкова и другие"
INDEX 01 11:19:70
TRACK 03 AUDIO
TITLE "Карлик Нос, часть 3"
PERFORMER "Всеволод Соболев, Зоя Пыльнова, Ольга Широкова и другие"
INDEX 01 24:02:52
TRACK 04 AUDIO
TITLE "Карлик Нос, часть 4"
PERFORMER "Всеволод Соболев, Зоя Пыльнова, Ольга Широкова и другие"
INDEX 01 36:01:25



   Похожие торренты   Торрент   Размер 
В этой теме нет новых непрочитанных сообщений. Мелодия - Вильгельм Гауф - Карлик Нос (1980) MP3

21 | 4

114.74 МБ

В этой теме нет новых непрочитанных сообщений. Вильгельм Гауф - Холодное сердце (2008) MP3

5 | 3

246.13 МБ

В этой теме нет новых непрочитанных сообщений. Вильгельм Гауф - Сказки (2012) MP3

118 | 3

123 МБ

В этой теме нет новых непрочитанных сообщений. Мелодия - Вильгельм Гауф - Маленький Мук (1971) MP3

27 | 2

105.45 МБ

В этой теме нет новых непрочитанных сообщений. Гауф Вильгельм - Маленький Мук (1971/1984) (2010) WAVPack

0 | 8

257.37 МБ

В этой теме нет новых непрочитанных сообщений. Карлик Нос (2003) PC

241 | 6

528.7 МБ

В этой теме нет новых непрочитанных сообщений. Карлик Нос (2003) DVDRip-AVC

368 | 57

1.29 ГБ




Вы не можете начинать темы
Вы не можете отвечать на сообщения
Вы не можете редактировать свои сообщения
Вы не можете удалять свои сообщения
Вы не можете добавлять вложения

Перейти:  
Для Мосгорсуда, Роскомнадзора и рекламодателей: mosgorsud-torrent[собачка]yandex.ru
 Вход
ppkBB3cker v.2 © 2008-2014 @ PPK
[ Time : 0.049s | 16 Queries | GZIP : Off ]

Торрент трекер RUTOR.IN, Не можете зайти на rutor.org? Какой новый адрес рутор? Какое зеркало рутор? Не работает rutor.org и зеркала? Тогда наш торрент специально для вас. Rutor.in неофициальное зеркало rutor. В случае если у Вас заблокирован rutor или вдруг Вы не можете на него зайти, то Вы без труда сможете скачать бесплатно и без рекламы последние новинки кино, игр, сериалов и прочего у нас, на Rutor.in. Не нужно использовать прокси, чтобы зайти на рутор, достаточно воспользоваться нашим ресурсом. Все новые фильмы, игры, сериалы, книги и музыка за 2013 и 2014 годы через торрент бесплатно. Скачивайте фильмы в хорошем качестве, игры для пк, xbox, playstation без регистрации. У нас вы найдете новые Зарубежные сериалы и Русские сериалы 2013, 2014, 2015 годов. Оставайтесь с нами, качайте любимые фильмы, игры, сериалы, книги и музыку.