img image001 image001 image001 image001 image001 image001 image001 image001 image001 image001 image001 image001 image001 image001 image001

Planets Sun Sun Sun
Статистика раздачи
Автор: Снежана | Размер: 246.02 МБ | Добавлен: 05 авг 2013
Раздают: 0    Качают: 5
Скачать торрент
Скачать торрент
Описание торрента

СообщениеДобавлено: 05 авг 2013 


Жанр: Сказка
Год выпуска: 2008 г.
Год записи: 1966 г.
Издательство: Мелодия
Серия: Мелодия - детям
Номер по каталогу: MEL CD 50 01504
Релиз: ley-barmaley
Аудио кодек: WAVPack
Тип рипа: image +.cue +.log
Битрейт: lossless
Тип : Аудиоспектакль
Общее время звучания: 00:54:48
Наличие сканов в содержимом раздачи: есть
Аннотация:
"Мелодия" продолжает реставрировать знаменитые и любимые многими слушателями записи, выходившие на пластинках в 60-80-е годы XX века.
Меняется время, меняется государство, его устройство. Но люди - не меняются. И как во все времена и при любых правителях есть честность, преданность, щедрость, доброта, так всегда, к сожалению, будут идти с ними рядом жадность, предательство, подлость и трусость.
Время окрашивает произведения искусства в свои оттенки. И то, что вчера было важным и актуальным, сегодня нам кажется порой нелепым и смешным. Но помнить свою историю нужно. И важно открывать новому поколению суть вещей, учить чувствовать ее сквозь то наносное, что пройдет.
Автор композиции 3. Чернышева
Действующие лица и исполнители:
Щелкунчик - В. Сперантова
Мари - В. Туманова
Франц - Е. Фирсова
Дроссельмейер - А. Кторов
Сказочник - В. Массальский
Оркестр Большого театра СССР.
Дирижер Г. Рождественский

Exact Audio Copy V0.99 prebeta 5 from 4. May 2009
Отчёт EAC об извлечении, выполненном 21. февраля 2011, 17:00
Various / Щелкунчик (MEL CD 50 01504, Rip by ley-barmaley)
Дисковод: ASUS DRW-1814BL Adapter: 0 ID: 0
Режим чтения : Достоверность
Использование точного потока : Да
Отключение кэша аудио : Да
Использование указателей C2 : Нет
Коррекция смещения при чтении : 6
Способность читать области Lead-in и Lead-out : Нет
Заполнение пропущенных сэмплов тишиной : Да
Удаление блоков с тишиной в начале и конце : Нет
При вычислениях CRC использовались нулевые сэмплы : Да
Интерфейс : Встроенный Win32-интерфейс для Win NT/2000
Выходной формат : Внутренние WAV-операции
Формат сэмплов : 44.100 Гц; 16 бит; стерео
TOC извлечённого CD
Трек | Старт | Длительность | Начальный сектор | Конечный сектор
---------------------------------------------------------------------
1 | 0:00.00 | 11:41.17 | 0 | 52591
2 | 11:41.17 | 15:29.35 | 52592 | 122301
3 | 27:10.52 | 13:35.68 | 122302 | 183494
4 | 40:46.45 | 14:01.53 | 183495 | 246622
Характеристики диапазона извлечения и сообщения об ошибках
Выбранный диапазон
Имя файла G:ley-barmaleylossless-galaxy.ruЩелкунчик (MEL CD 50 01504, Rip by ley-barmaley).wav
Пиковый уровень 99.6 %
Качество диапазона 100.0 %
CRC теста FC72F4F2
CRC копии FC72F4F2
Копирование... OK
Ошибок не произошло
AccurateRip: сводка
Трек 1 нет в базе данных
Трек 2 нет в базе данных
Трек 3 нет в базе данных
Трек 4 нет в базе данных
Ни одного трека нет в базе AccurateRip
Конец отчёта


-----------------------
DON'T MODIFY THIS FILE
-----------------------
PERFORMER: auCDtect Task Manager, ver. 1.5.1RC3 build 1.5.1.4
Copyright (c) 2008-2010 y-soft. All rights reserved
http://y-soft.org
ANALYZER: auCDtect: CD records authenticity detector, version 0.8.2
Copyright (c) 2004 Oleg Berngardt. All rights reserved.
Copyright (c) 2004 Alexander Djourik. All rights reserved.
FILE: Щелкунчик (MEL CD 50 01504, Rip by ley-barmaley).wv
Size: 251504994 Hash: 51721FDE2EEA1DF588E3980B2E849C71 Accuracy: -m0
Conclusion: CDDA 100%
Signature: 3B9D4EA21FC3221C6B9961EBB5FAFA55C50ABEA7
FILE: Щелкунчик (MEL CD 50 01504, Rip by ley-barmaley).wav
Size: 580057340 Hash: 51721FDE2EEA1DF588E3980B2E849C71 Accuracy: -m0
Conclusion: CDDA 100%
Signature: 84D8C077B9061FC5F300EAF75E02AAFE1AFD1832



REM GENRE "Music tale"
REM DATE 2008
REM DISCID 2A0CD804
REM COMMENT "ExactAudioCopy v0.99pb5"
PERFORMER "Various"
TITLE "Щелкунчик"
FILE "Щелкунчик (MEL CD 50 01504, Rip by ley-barmaley).wv" WAVE
TRACK 01 AUDIO
TITLE "Track01"
PERFORMER "Track01"
FLAGS DCP
INDEX 01 00:00:00
TRACK 02 AUDIO
TITLE "Track02"
PERFORMER "Track02"
FLAGS DCP
INDEX 01 11:41:17
TRACK 03 AUDIO
TITLE "Track03"
PERFORMER "Track03"
FLAGS DCP
INDEX 01 27:10:52
TRACK 04 AUDIO
TITLE "Track04"
PERFORMER "Track04"
FLAGS DCP
INDEX 01 40:46:45



   Похожие торренты   Торрент   Размер 
В этой теме нет новых непрочитанных сообщений. Эрнст Теодор Амадей Гофман - Щелкунчик (чит. Алиса Френдлих) (1816) (2005) MP3

4 | 3

81.81 МБ

В этой теме нет новых непрочитанных сообщений. Гении и злодеи. Эрнст Теодор Амадей Гофман. Между сном и явью (2014) IPTVRip от Pshichko66

23 | 3

400.57 МБ

В этой теме нет новых непрочитанных сообщений. Д`Эрвилья Эрнст и другие - История древнего мира (1986) (2009) WAVPack

16 | 6

810.4 МБ

В этой теме нет новых непрочитанных сообщений. Мелодия - Щелкунчик (1966) MP3

53 | 6

71.7 МБ

В этой теме нет новых непрочитанных сообщений. Эрнст Хейнкель - Мечта о полете / Ernst Heinkel - The Dream Of Flying (2008) SATRip от torrentfilm | Р1

1 | 0

449.43 МБ

В этой теме нет новых непрочитанных сообщений. Эрнст Мулдашев. В поисках Лабиринта Минотавра / Знаки Лабиринта (2008) DVDRip

15 | 4

658.01 МБ

В этой теме нет новых непрочитанных сообщений. Prostitute Disfigurement - Descendants Of Depravity (2008) WAVPack

0 | 1

344.38 МБ




Вы не можете начинать темы
Вы не можете отвечать на сообщения
Вы не можете редактировать свои сообщения
Вы не можете удалять свои сообщения
Вы не можете добавлять вложения

Перейти:  
Для Мосгорсуда, Роскомнадзора и рекламодателей: mosgorsud-torrent[собачка]yandex.ru
 Вход
ppkBB3cker v.2 © 2008-2014 @ PPK
[ Time : 0.996s | 14 Queries | GZIP : Off ]

Торрент трекер RUTOR.IN, Не можете зайти на rutor.org? Какой новый адрес рутор? Какое зеркало рутор? Не работает rutor.org и зеркала? Тогда наш торрент специально для вас. Rutor.in неофициальное зеркало rutor. В случае если у Вас заблокирован rutor или вдруг Вы не можете на него зайти, то Вы без труда сможете скачать бесплатно и без рекламы последние новинки кино, игр, сериалов и прочего у нас, на Rutor.in. Не нужно использовать прокси, чтобы зайти на рутор, достаточно воспользоваться нашим ресурсом. Все новые фильмы, игры, сериалы, книги и музыка за 2013 и 2014 годы через торрент бесплатно. Скачивайте фильмы в хорошем качестве, игры для пк, xbox, playstation без регистрации. У нас вы найдете новые Зарубежные сериалы и Русские сериалы 2013, 2014, 2015 годов. Оставайтесь с нами, качайте любимые фильмы, игры, сериалы, книги и музыку.