img image001 image001 image001 image001 image001 image001 image001 image001 image001 image001 image001 image001 image001 image001 image001

Planets Sun Sun Sun
Статистика раздачи
Автор: Снежана | Размер: 214.9 МБ | Добавлен: 04 авг 2013, 22:22
Раздают: 12    Качают: 3
Скачать торрент
Скачать торрент
Описание торрента

СообщениеДобавлено: 04 авг 2013, 22:22 


Жанр: Поэтическая тетралогия для детей
Год выпуска: 1982 г.
Год оцифровки: 2011 г.
Издательство: Мелодия
Номер по каталогу: С50-17499-500
Аудио кодек: FLAC
Тип рипа: image+.cue
Битрейт: lossless
Исполнитель: Литвинов Николай
Тип : Аудиокнига
Общее время звучания: 00:38:00
Наличие сканов в содержимом раздачи: есть
Аннотация:
Дядя Стёпа — один из персонажей советского писателя Сергея Михалкова из поэтической тетралогии для детей «Дядя Стёпа» («Дядя Стёпа», «Дядя Стёпа — милиционер», «Дядя Стёпа и Егор», «Дядя Стёпа — ветеран»).
Положительный персонаж «по фамилии Степанов и по имени Степан», служил на флоте (на линкоре «Марат»), стал работать милиционером.
Отличительные особенности Дяди Стёпы: огромный рост, любовь к детям, сугубо положительные черты характера.

- Источник оцифровки: Svarnoy
- Класс состояния винила: EX
- Устройство воспроизведения: Арктур 006
- Картридж: Ortofon 2M Red
- Фонокорректор: Pro-Ject Phono Box MM
- АЦП: M-Audio Audiophile 2496
- Программа: WaveLab 6
- Обработка: Без обработки
- Формат записи (Bit/kHz): 32(float)/96
- Формат раздачи (Bit/kHz): 16(float)/44,1





REM GENRE "Children's"
REM DATE 1982 (Запись 1981, издание 1991)
REM COMMENT "Мелодия, Апрелевский завод, С50-17499-500"
PERFORMER "Сергей Михалков"
TITLE "Дядя Стёпа"
FILE "Сергей Михалков - Дядя Стёпа (1982).flac" WAVE
TRACK 01 AUDIO
TITLE "Дядя Стёпа"
INDEX 01 00:00:00
TRACK 02 AUDIO
TITLE "Дядя Стёпа-милиционер"
INDEX 01 10:19:00
TRACK 03 AUDIO
TITLE "Дядя Стёпа и Егор"
INDEX 01 21:07:00
TRACK 04 AUDIO
TITLE "Дядя Стёпа-ветеран"
INDEX 01 30:59:00


01. Дядя Стёпа (10:19)
02. Дядя Стёпа-милиционер (10:48)
03. Дядя Стёпа и Егор (9:52)
04. Дядя Стёпа-ветеран (7:02)



   Похожие торренты   Торрент   Размер 
В этой теме нет новых непрочитанных сообщений. Мелодия - Сергей Михалков - Дядя Стёпа (1982) MP3

22 | 3

87.03 МБ

В этой теме нет новых непрочитанных сообщений. Дядя Стёпа - милиционер. Сборник мультфильмов (1954-1980) DVDRip от Русфильм

32 | 23

1.06 ГБ

В этой теме нет новых непрочитанных сообщений. НТВшники. Никита Михалков [эфир от 08.04] (2011) SATRip от RiperAM

0 | 5

694.2 МБ

В этой теме нет новых непрочитанных сообщений. Сергей Трофимов - Сорокапяточка (2011) FLAC

13 | 3

387.3 МБ

В этой теме нет новых непрочитанных сообщений. Сергей Трофимов - Золотые хиты (2011) FLAC

153 | 15

542.73 МБ

В этой теме нет новых непрочитанных сообщений. Сергей Трофимов - Я скучаю по тебе (2011) FLAC

59 | 14

488.62 МБ

В этой теме нет новых непрочитанных сообщений. Сергей Довлатов - Зона (1982) (2007) MP3

93 | 7

343.75 МБ




Вы не можете начинать темы
Вы не можете отвечать на сообщения
Вы не можете редактировать свои сообщения
Вы не можете удалять свои сообщения
Вы не можете добавлять вложения

Перейти:  
Для Мосгорсуда, Роскомнадзора и рекламодателей: mosgorsud-torrent[собачка]yandex.ru
Настройки
ppkBB3cker v.2 © 2008-2014 @ PPK
[ Time : 0.023s | 16 Queries | GZIP : Off ]
CGP [Extreme] output time : 0.00015s | 0 Queries | GZIP : Off

Торрент трекер RUTOR.IN, Не можете зайти на rutor.org? Какой новый адрес рутор? Какое зеркало рутор? Не работает rutor.org и зеркала? Тогда наш торрент специально для вас. Rutor.in неофициальное зеркало rutor. В случае если у Вас заблокирован rutor или вдруг Вы не можете на него зайти, то Вы без труда сможете скачать бесплатно и без рекламы последние новинки кино, игр, сериалов и прочего у нас, на Rutor.in. Не нужно использовать прокси, чтобы зайти на рутор, достаточно воспользоваться нашим ресурсом. Все новые фильмы, игры, сериалы, книги и музыка за 2013 и 2014 годы через торрент бесплатно. Скачивайте фильмы в хорошем качестве, игры для пк, xbox, playstation без регистрации. У нас вы найдете новые Зарубежные сериалы и Русские сериалы 2013, 2014, 2015 годов. Оставайтесь с нами, качайте любимые фильмы, игры, сериалы, книги и музыку.