img image001 image001 image001 image001 image001 image001 image001 image001 image001 image001 image001 image001 image001 image001 image001

Planets Sun Sun Sun
Статистика раздачи
Автор: Снежана | Размер: 272.03 МБ | Добавлен: 05 авг 2013
Раздают: 8    Качают: 2
Скачать торрент
Скачать торрент
Описание торрента

СообщениеДобавлено: 05 авг 2013 

Фантазия В. Ливанова и Ю. Энтина на тему сказки братьев Гримм

Жанр: Музыкальная сказка
Год выпуска: 1969 г.
Год оцифровки: 2012 г.
Издательство: Мелодия
Номер по каталогу: 33Д24708-8
Релиз: Юрий 1963
Аудио кодек: FLAC
Тип рипа: image+.cue
Битрейт: lossless
Исполнители: О. Анофриев, Э. Жерздева
Тип : Аудиоспектакль
Общее время звучания: 25:25
Наличие сканов в содержимом раздачи: есть
Аннотация:
Уважаемые владельцы пластинок, в ваших руках конверт. В конверте лежит пластинка. А на пластинке на длинной-длинной вьющейся дорожке записана одна чрезвычайно интересная история. Её придумали для вас Василий Ливанов, Юрий Энтин и композитор Геннадий Гладков, и называется она "Бременские музыканты", так же, как и хорошо знакомая вам сказка братьев Гримм. В обработке молодых авторов эта старинная сказка засверкала новыми современными красками.
Я просто уверен, ребята, что вам очень понравится её главный герой - энергичный и неунывающий юный Трубадур. Что у вас вызовут симпатии друзья Трубадура - великие артисты того времени - Пёс, Осёл, Кот и голосистый Петух. Что все вы будете смеятся над недалёким и глупым "его Чванличеством" королём и его разудалой стражей. А ужасные и невероятно опасные разбойники во главе с грозной атаманшейй вам совсем не покажутся страшными.
Между прочим, если бы я вам не сказал, вы ни за что бы не поверили, что почти все эти сложные и такие разные роли играет всего один человек - артист Олег Анофриев.
И ещё вам, наверное, интересно будет узнать, что существует мультипликационный фильм "Бременские музыканты", созданный режиссёром Инессой Ковалевской на сюжет сказки В. Ливанова и Ю. Энтина, который вы сможете посмотреть.
Вот и всё, ребята. А теперь вы можете слушать сказку.
Режиссер - В. Ливанов. Оркестр п/у Г. Гладкова.
музыка Г. Гладкова, стихи Ю. Энтина
Действующие лица и исполнители:
От автора, Трубадур, Атаманша и другие - О. Анофриев
Принцесса - Э. Жерздева

Источник оцифровки: Юрий 1963
Код класса состояния винила: NM
Устройство воспроизведения: Корвет ЭП-003
Головка звукоснимателя: EXCEL ES-70S
Предварительный усилитель: клон CREEK OBH-8SE
АЦП: M-Audio Audiophile 2496
Программа-оцифровщик: WaveLab 6.11
Формат записи: mono 24/96
Формат раздачи: mono 24/96
Обработка: Удаление щелчков вручную, подавление рокота





REM GENRE Музыкальная сказка
REM DATE 1969
PERFORMER "Бременские музыканты"
TITLE "фантазия В. Ливанова и Ю. Энтина на тему сказки братьев Гримм"
FILE "side_1.flac" WAVE
TRACK 01 AUDIO
TITLE "Вступление"
PERFORMER "Бременские музыканты"
INDEX 01 00:00:00
TRACK 02 AUDIO
TITLE "Песенка Друзей"
PERFORMER "Бременские музыканты"
INDEX 01 01:18:00
TRACK 03 AUDIO
TITLE "Представление"
PERFORMER "Бременские музыканты"
INDEX 01 03:28:00
TRACK 04 AUDIO
TITLE "Дуэт Трубадура и Принцессы"
PERFORMER "Бременские музыканты"
INDEX 01 08:15:00
TRACK 05 AUDIO
TITLE "Первая песня Разбойников (Говорят, мы бяки-буки...)"
PERFORMER "Бременские музыканты"
INDEX 01 10:26:00
FILE "side_2.flac" WAVE
TRACK 06 AUDIO
TITLE "Ох, рано встает охрана"
PERFORMER "Бременские музыканты"
INDEX 01 00:00:00
TRACK 07 AUDIO
TITLE "Песня переодетых Бременских музыкантов"
PERFORMER "Бременские музыканты"
INDEX 01 01:51:10
TRACK 08 AUDIO
TITLE "Песня Трубадура (Куда ты, тропинка, меня привела)"
PERFORMER "Бременские музыканты"
INDEX 01 03:37:00
TRACK 09 AUDIO
TITLE "Песенка Друзей-2"
PERFORMER "Бременские музыканты"
INDEX 01 09:35:00
TRACK 10 AUDIO
TITLE "Финал"
PERFORMER "Бременские музыканты"
INDEX 01 11:22:40


Сторона 1
01. Вступление (1:18)
02. Песенка Друзей (2:10)
03. Представление (4:47)
04. Дуэт Трубадура и Принцессы (2:11)
05. Первая песня Разбойников (Говорят, мы бяки-буки...) (2:48)
Сторона 2
06. Ох, рано встает охрана (1:51)
07. Песня переодетых Бременских музыкантов (1:46)
08. Песня Трубадура (Куда ты, тропинка, меня привела) (5:58)
09. Песенка Друзей-2 (1:48)
10. Финал (1:09)



   Похожие торренты   Торрент   Размер 
В этой теме нет новых непрочитанных сообщений. Бременские музыканты (1969-1973) BDRip 720p

1511 | 69

1.76 ГБ

В этой теме нет новых непрочитанных сообщений. Бременские музыканты [Дилогия] (1969-1973) DVDRip от MediaClub | КПК

611 | 21

176.67 МБ

В этой теме нет новых непрочитанных сообщений. Бременские музыканты / По следам бременских музыкантов (1969, 1973) DVDRip-AVC

484 | 4

577.98 МБ

В этой теме нет новых непрочитанных сообщений. Бременские музыканты. По следам бременских музыкантов (1969, 1973) HDRip

10 | 5

746.19 МБ

В этой теме нет новых непрочитанных сообщений. Бременские музыканты / По следам бременских музыкантов (1969, 1973) DVDRip от R.G.RealMT

1170 | 40

527.56 МБ

В этой теме нет новых непрочитанных сообщений. Бременские музыканты / По следам бременских музыкантов (1969, 1973) BDRip1080p от Freeisland

139 | 11

2.7 ГБ

В этой теме нет новых непрочитанных сообщений. Бременские музыканты. Сборник мультфильмов (1969-1973) BDRip 1080 от HDReactor

340 | 27

4.37 ГБ




Вы не можете начинать темы
Вы не можете отвечать на сообщения
Вы не можете редактировать свои сообщения
Вы не можете удалять свои сообщения
Вы не можете добавлять вложения

Перейти:  
Для Мосгорсуда, Роскомнадзора и рекламодателей: mosgorsud-torrent[собачка]yandex.ru
 Вход
ppkBB3cker v.2 © 2008-2014 @ PPK
[ Time : 0.036s | 14 Queries | GZIP : On ]

Торрент трекер RUTOR.IN, Не можете зайти на rutor.org? Какой новый адрес рутор? Какое зеркало рутор? Не работает rutor.org и зеркала? Тогда наш торрент специально для вас. Rutor.in неофициальное зеркало rutor. В случае если у Вас заблокирован rutor или вдруг Вы не можете на него зайти, то Вы без труда сможете скачать бесплатно и без рекламы последние новинки кино, игр, сериалов и прочего у нас, на Rutor.in. Не нужно использовать прокси, чтобы зайти на рутор, достаточно воспользоваться нашим ресурсом. Все новые фильмы, игры, сериалы, книги и музыка за 2013 и 2014 годы через торрент бесплатно. Скачивайте фильмы в хорошем качестве, игры для пк, xbox, playstation без регистрации. У нас вы найдете новые Зарубежные сериалы и Русские сериалы 2013, 2014, 2015 годов. Оставайтесь с нами, качайте любимые фильмы, игры, сериалы, книги и музыку.