img image001 image001 image001 image001 image001 image001 image001 image001 image001 image001 image001 image001 image001 image001 image001

Planets Sun Sun Sun
Статистика раздачи
Автор: Снежана | Размер: 257.37 МБ | Добавлен: 05 авг 2013
Раздают: 0    Качают: 8
Скачать торрент
Скачать торрент
Описание торрента

СообщениеДобавлено: 05 авг 2013 


Жанр: Сказка
Год выпуска: 2010 г.
Год записи: 1971/1984 г.
Издательство: Мелодия
Серия: Мелодия - детям
Номер по каталогу: Mel CD 50 01721
Релиз: ley-barmaley
Аудио кодек: WAVPack
Тип рипа: image +.cue +.log
Битрейт: lossless
Тип : Аудиоспектакль
Общее время звучания: 00:45:59
Наличие сканов в содержимом раздачи: есть
Аннотация:
"Мелодия" продолжает реставрировать знаменитые и любимые многими слушателями записи, выходившие на пластинках в 60-80-е годы XX века.
Меняется время, меняется государство, его устройство. Но люди - не меняются. И как во все времена и при любых правителях есть честность, преданность, щедрость, доброта, так всегда, к сожалению, будут идти с ними рядом жадность, предательство, подлость и трусость.
Время окрашивает произведения искусства в свои оттенки. И то, что вчера было важным и актуальным, сегодня нам кажется порой нелепым и смешным. Но помнить свою историю нужно. И важно открывать новому поколению суть вещей, учить чувствовать ее сквозь то наносное, что пройдет.
Инсценировка В. Глоцера
Музыка Г. Савельева
Действующие лица и исполнители:
От автора – Н. Макеев
Маленький Мук – Г. Иванова
Ахавзи – Т. Пельтцер
Тетка – Л. Пашкова
Король – В. Лекарев
Принцесса – О. Селезнева
Повар, Доктор – Н. Пажитнов
Привратник – В. Балагуров
Скороход – Н. Брилинг
Мальчишки – И. Потоцкая, Н. Шеффер, Е. Фирсова
Инструментальный ансамбль п/у А. Корнеева
Песни из телефильма «Приключения маленького Мука»
Музыка М. Минкова
Стихи Ю. Энтина
Песня о Дороге Добра (Т. Рузавина, С. Таюшев)
Песня скорохода (Е. Герчаков)
Песня казначея (Г. Трофимов)
Разве это не чудо (Г. Трофимов, А. Асадуллин)
Оркестр Госкино, дирижер С. Скрипка

Exact Audio Copy V0.99 prebeta 5 from 4. May 2009
Отчёт EAC об извлечении, выполненном 28. февраля 2011, 19:42
Various / Маленький Mук (MEL CD 50 01721, Rip by ley-barmaley)
Дисковод: ASUS DRW-1814BL Adapter: 0 ID: 0
Режим чтения : Достоверность
Использование точного потока : Да
Отключение кэша аудио : Да
Использование указателей C2 : Нет
Коррекция смещения при чтении : 6
Способность читать области Lead-in и Lead-out : Нет
Заполнение пропущенных сэмплов тишиной : Да
Удаление блоков с тишиной в начале и конце : Нет
При вычислениях CRC использовались нулевые сэмплы : Да
Интерфейс : Встроенный Win32-интерфейс для Win NT/2000
Выходной формат : Внутренние WAV-операции
Формат сэмплов : 44.100 Гц; 16 бит; стерео
TOC извлечённого CD
Трек | Старт | Длительность | Начальный сектор | Конечный сектор
---------------------------------------------------------------------
1 | 0:00.00 | 4:03.51 | 0 | 18275
2 | 4:03.51 | 5:21.53 | 18276 | 42403
3 | 9:25.29 | 4:59.69 | 42404 | 64897
4 | 14:25.23 | 4:33.72 | 64898 | 85444
5 | 18:59.20 | 4:08.37 | 85445 | 104081
6 | 23:07.57 | 5:10.46 | 104082 | 127377
7 | 28:18.28 | 5:01.66 | 127378 | 150018
8 | 33:20.19 | 2:13.19 | 150019 | 160012
9 | 35:33.38 | 3:52.10 | 160013 | 177422
10 | 39:25.48 | 3:05.53 | 177423 | 191350
11 | 42:31.26 | 3:28.01 | 191351 | 206951
Характеристики диапазона извлечения и сообщения об ошибках
Выбранный диапазон
Имя файла G:ley-barmaleylossless-galaxy.ruМаленький Mук (MEL CD 50 01721, Rip by ley-barmaley).wav
Пиковый уровень 100.0 %
Качество диапазона 100.0 %
CRC теста 7C9552F9
CRC копии 7C9552F9
Копирование... OK
Ошибок не произошло
AccurateRip: сводка
Трек 1 нет в базе данных
Трек 2 нет в базе данных
Трек 3 нет в базе данных
Трек 4 нет в базе данных
Трек 5 нет в базе данных
Трек 6 нет в базе данных
Трек 7 нет в базе данных
Трек 8 нет в базе данных
Трек 9 нет в базе данных
Трек 10 нет в базе данных
Трек 11 нет в базе данных
Ни одного трека нет в базе AccurateRip
Конец отчёта


-----------------------
DON'T MODIFY THIS FILE
-----------------------
PERFORMER: auCDtect Task Manager, ver. 1.5.1RC3 build 1.5.1.4
Copyright (c) 2008-2010 y-soft. All rights reserved
http://y-soft.org
ANALYZER: auCDtect: CD records authenticity detector, version 0.8.2
Copyright (c) 2004 Oleg Berngardt. All rights reserved.
Copyright (c) 2004 Alexander Djourik. All rights reserved.
FILE: Маленький Mук (MEL CD 50 01721, Rip by ley-barmaley).wv
Size: 259915264 Hash: 576360B33CF68130BFB42828ADD7A6DC Accuracy: -m0
Conclusion: CDDA 100%
Signature: 330EDA0BCF358268DF0310A1C260321FBB12BF5A



REM GENRE "Music tale"
REM DATE 2010
REM DISCID 880AC70B
REM COMMENT "ExactAudioCopy v0.99pb5"
PERFORMER "Various"
TITLE "Маленький Mук"
FILE "Маленький Mук (MEL CD 50 01721, Rip by ley-barmaley).wv" WAVE
TRACK 01 AUDIO
TITLE "Маленький Mук, часть 1"
PERFORMER "Маленький Mук, часть 1"
FLAGS DCP
INDEX 01 00:00:00
TRACK 02 AUDIO
TITLE "Маленький Mук, часть 2"
PERFORMER "Маленький Mук, часть 2"
FLAGS DCP
INDEX 01 04:03:51
TRACK 03 AUDIO
TITLE "Маленький Mук, часть 3"
PERFORMER "Маленький Mук, часть 3"
FLAGS DCP
INDEX 01 09:25:29
TRACK 04 AUDIO
TITLE "Маленький Mук, часть 4"
PERFORMER "Маленький Mук, часть 4"
FLAGS DCP
INDEX 01 14:25:23
TRACK 05 AUDIO
TITLE "Маленький Mук, часть 5"
PERFORMER "Маленький Mук, часть 5"
FLAGS DCP
INDEX 01 18:59:20
TRACK 06 AUDIO
TITLE "Маленький Mук, часть 6"
PERFORMER "Маленький Mук, часть 6"
FLAGS DCP
INDEX 01 23:07:57
TRACK 07 AUDIO
TITLE "Маленький Mук, часть 7"
PERFORMER "Маленький Mук, часть 7"
FLAGS DCP
INDEX 01 28:18:28
TRACK 08 AUDIO
TITLE "Песня о Дороге Добра"
PERFORMER "Т.Рузавина, С.Таюшев"
FLAGS DCP
INDEX 00 33:17:19
INDEX 01 33:20:19
TRACK 09 AUDIO
TITLE "Песня скорохода"
PERFORMER "Е.Герчаков"
FLAGS DCP
INDEX 00 35:30:38
INDEX 01 35:33:38
TRACK 10 AUDIO
TITLE "Песня казначея"
PERFORMER "Г.Трофимов"
FLAGS DCP
INDEX 00 39:22:48
INDEX 01 39:25:48
TRACK 11 AUDIO
TITLE "Разве это не чудо"
PERFORMER "Г.Трофимов, А.Асадуллин"
FLAGS DCP
INDEX 00 42:28:26
INDEX 01 42:31:26



   Похожие торренты   Торрент   Размер 
В этой теме нет новых непрочитанных сообщений. Мелодия - Вильгельм Гауф - Маленький Мук (1971) MP3

27 | 2

105.45 МБ

В этой теме нет новых непрочитанных сообщений. Вильгельм Гауф - Сказки (2012) MP3

118 | 3

123 МБ

В этой теме нет новых непрочитанных сообщений. Вильгельм Гауф - Холодное сердце (2008) MP3

5 | 3

246.13 МБ

В этой теме нет новых непрочитанных сообщений. Гауф Вильгельм - Карлик Нос (1980) (2008) APE

5 | 2

224.27 МБ

В этой теме нет новых непрочитанных сообщений. Мелодия - Вильгельм Гауф - Карлик Нос (1980) MP3

21 | 4

114.74 МБ

В этой теме нет новых непрочитанных сообщений. Paul and Linda McCartney - Ram (1971) WavPack | VinylRip

0 | 319

2.95 ГБ

В этой теме нет новых непрочитанных сообщений. Пикник - Танец Волка (1984) WavPack | VinylRip

3 | 4

1.16 ГБ




Вы не можете начинать темы
Вы не можете отвечать на сообщения
Вы не можете редактировать свои сообщения
Вы не можете удалять свои сообщения
Вы не можете добавлять вложения

Перейти:  
Для Мосгорсуда, Роскомнадзора и рекламодателей: mosgorsud-torrent[собачка]yandex.ru
 Вход
ppkBB3cker v.2 © 2008-2014 @ PPK
[ Time : 0.048s | 14 Queries | GZIP : On ]

Торрент трекер RUTOR.IN, Не можете зайти на rutor.org? Какой новый адрес рутор? Какое зеркало рутор? Не работает rutor.org и зеркала? Тогда наш торрент специально для вас. Rutor.in неофициальное зеркало rutor. В случае если у Вас заблокирован rutor или вдруг Вы не можете на него зайти, то Вы без труда сможете скачать бесплатно и без рекламы последние новинки кино, игр, сериалов и прочего у нас, на Rutor.in. Не нужно использовать прокси, чтобы зайти на рутор, достаточно воспользоваться нашим ресурсом. Все новые фильмы, игры, сериалы, книги и музыка за 2013 и 2014 годы через торрент бесплатно. Скачивайте фильмы в хорошем качестве, игры для пк, xbox, playstation без регистрации. У нас вы найдете новые Зарубежные сериалы и Русские сериалы 2013, 2014, 2015 годов. Оставайтесь с нами, качайте любимые фильмы, игры, сериалы, книги и музыку.