img image001 image001 image001 image001 image001 image001 image001 image001 image001 image001 image001 image001 image001 image001 image001

Planets Sun Sun Sun
Статистика раздачи
Автор: Снежана | Размер: 1.53 ГБ | Добавлен: 05 авг 2013
Раздают: 25    Качают: 3
Скачать торрент
Скачать торрент
Описание торрента

СообщениеДобавлено: 05 авг 2013 


Оригинальное название: Harry Potter and the Chamber of Secrets
Жанр: Фэнтези, приключения
Год выпуска: 2006
Издательство: Издательский дом "Союз"
ISBN: 0225-06
Перевод: М. Д. Литвинова
По изданию: Москва, "Росмэн-Издат", 2002 г.
Конвертация: geka9999
Аудио кодек: FLAC (*.flac)
Битрейт аудио: lossless
Тип рипа: image+.cue
Исполнитель: Клюквин Александр
Тип : Аудиокнига
Источник (релизер): SPQR
Общее время звучания: 10:26:37
«Гарри Поттер» (англ. «Harry Potter») — популярная серия романов английской писательницы Дж. К. Роулинг. Каждый из романов описывает один год из жизни главного героя — мальчика-волшебника по имени Гарри Поттер. Все семь частей стали бестселлерами и переведены на множество языков, в том числе на русский. Последняя, седьмая, часть появилась в продаже 21 июля 2007. На русском языке — 13 октября 2007. Общий тираж книг составил более 325 миллионов экземпляров (на 64 языках) — больше, чем у какой-либо другой серии детских книг.

* Гарри Поттер и философский камень
* Гарри Поттер и Тайная комната
* Гарри Поттер и узник Азкабана
* Гарри Поттер и Кубок Огня
* Гарри Поттер и Орден Феникса
* Гарри Поттер и Принц-полукровка
* Гарри Поттер и Дары Смерти
* Гарри Поттер: предыстория

Книга 2 - Гарри Поттер и Тайная комната [9 CD]:
Описание: Семейка Дурслей была настолько мерзкой и отвратительной, что единственным желанием Гарри Поттера во время летних каникул было быстрее вернуться в школу Хогвартс. Но как только он начал готовиться к отъезду, в его комнате появился маленький странный человечек по имени Добби, который предупредил Гарри о том, что как только он появится в Хогвартс - с ним случится огромная беда.
К сожалению, он оказался прав. Несчастья не заставили себя ждать. На втором году обучения на долю Гарри выпали новые испытания и злоключения: это и появление нового невероятно заносчивого профессора, и непонятно откуда появившееся привидение, и чрезмерное внимание со стороны сестры Рона... Но, все это оказалось сущей ерундой по сравнению с тем, что ждало Гарри впереди, когда кто-то или что-то стало превращать учеников Хогвартс в камень. Может быть, это дело рук Малфоя, самого рьяного соперника Гарри? Или Хагрида, чье загадочное прошлое, вызывает столько подозрений? А может быть виновник всего происходящего... сам Гарри Поттер?

CD1
Глава 1 День рождения - хуже некуда треки 1-4
Глава 2 Добби предупреждает об опасности треки 5-9
Глава 3 Нора треки 10-16
Время звучания: 01:15:05
CD2
Глава 4 Флориш и Блоттс треки 1-9
Время звучания: 00:44:15
CD3
Глава 5 Гремучая ива треки 1-8
Глава 6 Златопуст Локонс треки 9-15
Время звучания: 01:14:46
CD4
Глава 7 Грязнокровки и голоса треки 1-7
Глава 8 Юбилей смерти треки 8-15
Время звучания: 01:11:34
CD5
Глава 9 Слова на стене треки 1-6
Глава 10 Бешеный мяч 7-12
Время звучания: 01:05:05
CD6
Глава 11 Дуэльный клуб треки 1-8
Глава 12 Оборотное зелье треки 9-16
Время звучания: 01:19:41
CD7
Глава 13 Волшебный дневник треки 1-7
Глава 14 Корнелиус Фадж треки 8-13
Время звучания: 01:08:38
CD8
Глава 15 Арагог треки 1-7
Глава 16 Тайная комната 8-16
Время звучания: 01:17:34
CD9
Глава 17 Наследник Слизерина 1-8
Глава 18 Добби вознагражден 9-14
Время звучания: 01:09:56

Логи создания рипов:

Exact Audio Copy V1.0 beta 2 from 29. April 2011
Отчёт EAC об извлечении, выполненном 20. августа 2011, 10:50
- / Гарри Поттер и Тайная комната - 01
Дисковод: Generic DVD-ROM Adapter: 4 ID: 0
Режим чтения : Достоверность
Использование точного потока : Да
Отключение кэша аудио : Да
Использование указателей C2 : Нет
Коррекция смещения при чтении : 0
Способность читать области Lead-in и Lead-out : Нет
Заполнение пропущенных сэмплов тишиной : Да
Удаление блоков с тишиной в начале и конце : Нет
При вычислениях CRC использовались нулевые сэмплы : Да
Интерфейс : Встроенный Win32-интерфейс для Win NT/2000
Выходной формат : Пользовательский кодировщик
Выбранный битрейт : 128 kBit/s
Качество : Высокий
Добавление ID3-тега : Нет
Утилита сжатия : D:PORTABLE SOFTExact Audio CopyFlacflac.exe
Дополнительные параметры : -V -8 -T "Date=%year%" -T "Genre=%genre%" %source%
TOC извлечённого CD
Трек | Старт | Длительность | Начальный сектор | Конечный сектор
---------------------------------------------------------------------
1 | 0:00.00 | 5:01.00 | 0 | 22574
2 | 5:01.00 | 4:44.05 | 22575 | 43879
3 | 9:45.05 | 5:32.28 | 43880 | 68807
4 | 15:17.33 | 4:24.59 | 68808 | 88666
5 | 19:42.17 | 5:00.31 | 88667 | 111197
6 | 24:42.48 | 5:03.44 | 111198 | 133966
7 | 29:46.17 | 5:08.63 | 133967 | 157129
8 | 34:55.05 | 4:54.64 | 157130 | 179243
9 | 39:49.69 | 3:42.74 | 179244 | 195967
10 | 43:32.68 | 5:07.49 | 195968 | 219041
11 | 48:40.42 | 4:56.53 | 219042 | 241294
12 | 53:37.20 | 4:46.51 | 241295 | 262795
13 | 58:23.71 | 5:04.04 | 262796 | 285599
14 | 63:28.00 | 4:49.07 | 285600 | 307281
15 | 68:17.07 | 3:04.40 | 307282 | 321121
16 | 71:21.47 | 3:44.09 | 321122 | 337930
Характеристики диапазона извлечения и сообщения об ошибках
Выбранный диапазон
Имя файла F:МОИ РАЗДАЧИАУДИОКНИГИРоулинг Джоан Кэтлин - Гарри ПоттерКнига 2 - Гарри Поттер и Тайная комната [9 CD]�1Гарри Поттер и Тайная комната - 01.wav
Пиковый уровень 98.4 %
Скорость извлечения 60.5 X
Качество диапазона 100.0 %
CRC теста 4D357CF2
CRC копии 4D357CF2
Копирование... OK
Ошибок не произошло
Конец отчёта
==== Контрольная сумма отчёта 35B4FEA97FEDB8A5A899498538D5D7D6D51B1A749DC9576C68CA92714AC436C6 ====


Exact Audio Copy V1.0 beta 2 from 29. April 2011
Отчёт EAC об извлечении, выполненном 20. августа 2011, 11:15
- / Гарри Поттер и Тайная комната - 02
Дисковод: Generic DVD-ROM Adapter: 4 ID: 0
Режим чтения : Достоверность
Использование точного потока : Да
Отключение кэша аудио : Да
Использование указателей C2 : Нет
Коррекция смещения при чтении : 0
Способность читать области Lead-in и Lead-out : Нет
Заполнение пропущенных сэмплов тишиной : Да
Удаление блоков с тишиной в начале и конце : Нет
При вычислениях CRC использовались нулевые сэмплы : Да
Интерфейс : Встроенный Win32-интерфейс для Win NT/2000
Выходной формат : Пользовательский кодировщик
Выбранный битрейт : 128 kBit/s
Качество : Высокий
Добавление ID3-тега : Нет
Утилита сжатия : D:PORTABLE SOFTExact Audio CopyFlacflac.exe
Дополнительные параметры : -V -8 -T "Date=%year%" -T "Genre=%genre%" %source%
TOC извлечённого CD
Трек | Старт | Длительность | Начальный сектор | Конечный сектор
---------------------------------------------------------------------
1 | 0:00.00 | 5:03.32 | 0 | 22756
2 | 5:03.32 | 5:21.08 | 22757 | 46839
3 | 10:24.40 | 5:18.45 | 46840 | 70734
4 | 15:43.10 | 5:07.66 | 70735 | 93825
5 | 20:51.01 | 4:51.59 | 93826 | 115709
6 | 25:42.60 | 5:11.73 | 115710 | 139107
7 | 30:54.58 | 5:09.50 | 139108 | 162332
8 | 36:04.33 | 4:51.16 | 162333 | 184173
9 | 40:55.49 | 3:19.62 | 184174 | 199160
Характеристики диапазона извлечения и сообщения об ошибках
Выбранный диапазон
Имя файла F:МОИ РАЗДАЧИАУДИОКНИГИРоулинг Джоан Кэтлин - Гарри ПоттерКнига 2 - Гарри Поттер и Тайная комната [9 CD]�2Гарри Поттер и Тайная комната - 02.wav
Пиковый уровень 96.6 %
Скорость извлечения 51.6 X
Качество диапазона 100.0 %
CRC теста 0318C2AA
CRC копии 0318C2AA
Копирование... OK
Ошибок не произошло
Конец отчёта
==== Контрольная сумма отчёта 82826A6A36D0118CDEE05453E7BC6DEEED9DCB988A6B093C193E2EA7A304EF8F ====


Exact Audio Copy V1.0 beta 2 from 29. April 2011
Отчёт EAC об извлечении, выполненном 20. августа 2011, 11:05
- / Гарри Поттер и Тайная комната - 03
Дисковод: Generic DVD-ROM Adapter: 4 ID: 0
Режим чтения : Достоверность
Использование точного потока : Да
Отключение кэша аудио : Да
Использование указателей C2 : Нет
Коррекция смещения при чтении : 0
Способность читать области Lead-in и Lead-out : Нет
Заполнение пропущенных сэмплов тишиной : Да
Удаление блоков с тишиной в начале и конце : Нет
При вычислениях CRC использовались нулевые сэмплы : Да
Интерфейс : Встроенный Win32-интерфейс для Win NT/2000
Выходной формат : Пользовательский кодировщик
Выбранный битрейт : 128 kBit/s
Качество : Высокий
Добавление ID3-тега : Нет
Утилита сжатия : D:PORTABLE SOFTExact Audio CopyFlacflac.exe
Дополнительные параметры : -V -8 -T "Date=%year%" -T "Genre=%genre%" %source%
TOC извлечённого CD
Трек | Старт | Длительность | Начальный сектор | Конечный сектор
---------------------------------------------------------------------
1 | 0:00.00 | 4:53.10 | 0 | 21984
2 | 4:53.10 | 5:01.63 | 21985 | 44622
3 | 9:54.73 | 4:38.28 | 44623 | 65500
4 | 14:33.26 | 5:01.69 | 65501 | 88144
5 | 19:35.20 | 5:23.42 | 88145 | 112411
6 | 24:58.62 | 5:09.68 | 112412 | 135654
7 | 30:08.55 | 5:06.30 | 135655 | 158634
8 | 35:15.10 | 3:47.56 | 158635 | 175715
9 | 39:02.66 | 4:47.42 | 175716 | 197282
10 | 43:50.33 | 6:12.30 | 197283 | 225212
11 | 50:02.63 | 5:47.08 | 225213 | 251245
12 | 55:49.71 | 5:01.39 | 251246 | 273859
13 | 60:51.35 | 5:05.39 | 273860 | 296773
14 | 65:56.74 | 4:18.42 | 296774 | 316165
15 | 70:15.41 | 4:31.01 | 316166 | 336491
Характеристики диапазона извлечения и сообщения об ошибках
Выбранный диапазон
Имя файла F:МОИ РАЗДАЧИАУДИОКНИГИРоулинг Джоан Кэтлин - Гарри ПоттерКнига 2 - Гарри Поттер и Тайная комната [9 CD]�3Гарри Поттер и Тайная комната - 03.wav
Пиковый уровень 95.8 %
Скорость извлечения 51.4 X
Качество диапазона 100.0 %
CRC теста DCF851C9
CRC копии DCF851C9
Копирование... OK
Ошибок не произошло
Конец отчёта
==== Контрольная сумма отчёта 1254CF3A4CAA5EFC96006BB371F035F006BAD53D0624059E0CCB8913100F7E74 ====


Exact Audio Copy V1.0 beta 2 from 29. April 2011
Отчёт EAC об извлечении, выполненном 20. августа 2011, 11:24
- / Гарри Поттер и Тайная комната - 04
Дисковод: Generic DVD-ROM Adapter: 4 ID: 0
Режим чтения : Достоверность
Использование точного потока : Да
Отключение кэша аудио : Да
Использование указателей C2 : Нет
Коррекция смещения при чтении : 0
Способность читать области Lead-in и Lead-out : Нет
Заполнение пропущенных сэмплов тишиной : Да
Удаление блоков с тишиной в начале и конце : Нет
При вычислениях CRC использовались нулевые сэмплы : Да
Интерфейс : Встроенный Win32-интерфейс для Win NT/2000
Выходной формат : Пользовательский кодировщик
Выбранный битрейт : 128 kBit/s
Качество : Высокий
Добавление ID3-тега : Нет
Утилита сжатия : D:PORTABLE SOFTExact Audio CopyFlacflac.exe
Дополнительные параметры : -V -8 -T "Date=%year%" -T "Genre=%genre%" %source%
TOC извлечённого CD
Трек | Старт | Длительность | Начальный сектор | Конечный сектор
---------------------------------------------------------------------
1 | 0:00.00 | 4:48.56 | 0 | 21655
2 | 4:48.56 | 5:12.01 | 21656 | 45056
3 | 10:00.57 | 5:34.19 | 45057 | 70125
4 | 15:35.01 | 5:35.28 | 70126 | 95278
5 | 21:10.29 | 5:26.28 | 95279 | 119756
6 | 26:36.57 | 4:41.68 | 119757 | 140899
7 | 31:18.50 | 2:53.69 | 140900 | 153943
8 | 34:12.44 | 5:29.06 | 153944 | 178624
9 | 39:41.50 | 4:53.32 | 178625 | 200631
10 | 44:35.07 | 5:09.45 | 200632 | 223851
11 | 49:44.52 | 5:36.40 | 223852 | 249091
12 | 55:21.17 | 5:08.21 | 249092 | 272212
13 | 60:29.38 | 5:26.67 | 272213 | 296729
14 | 65:56.30 | 5:38.13 | 296730 | 322092
Характеристики диапазона извлечения и сообщения об ошибках
Выбранный диапазон
Имя файла F:МОИ РАЗДАЧИАУДИОКНИГИРоулинг Джоан Кэтлин - Гарри ПоттерКнига 2 - Гарри Поттер и Тайная комната [9 CD]�4Гарри Поттер и Тайная комната - 04.wav
Пиковый уровень 98.1 %
Скорость извлечения 51.2 X
Качество диапазона 100.0 %
CRC теста B68194E1
CRC копии B68194E1
Копирование... OK
Ошибок не произошло
Конец отчёта
==== Контрольная сумма отчёта CF49F41A389FCBA4984E5F841D09EE344EE73F0D74A8291B185CEE97ED4EF0B7 ====


Exact Audio Copy V1.0 beta 2 from 29. April 2011
Отчёт EAC об извлечении, выполненном 20. августа 2011, 11:33
- / Гарри Поттер и Тайная комната - 05
Дисковод: Generic DVD-ROM Adapter: 4 ID: 0
Режим чтения : Достоверность
Использование точного потока : Да
Отключение кэша аудио : Да
Использование указателей C2 : Нет
Коррекция смещения при чтении : 0
Способность читать области Lead-in и Lead-out : Нет
Заполнение пропущенных сэмплов тишиной : Да
Удаление блоков с тишиной в начале и конце : Нет
При вычислениях CRC использовались нулевые сэмплы : Да
Интерфейс : Встроенный Win32-интерфейс для Win NT/2000
Выходной формат : Пользовательский кодировщик
Выбранный битрейт : 128 kBit/s
Качество : Высокий
Добавление ID3-тега : Нет
Утилита сжатия : D:PORTABLE SOFTExact Audio CopyFlacflac.exe
Дополнительные параметры : -V -8 -T "Date=%year%" -T "Genre=%genre%" %source%
TOC извлечённого CD
Трек | Старт | Длительность | Начальный сектор | Конечный сектор
---------------------------------------------------------------------
1 | 0:00.00 | 4:54.57 | 0 | 22106
2 | 4:54.57 | 5:04.72 | 22107 | 44978
3 | 9:59.54 | 5:09.74 | 44979 | 68227
4 | 15:09.53 | 4:57.32 | 68228 | 90534
5 | 20:07.10 | 5:01.72 | 90535 | 113181
6 | 25:09.07 | 7:14.67 | 113182 | 145798
7 | 32:23.74 | 5:28.59 | 145799 | 170457
8 | 37:52.58 | 5:14.43 | 170458 | 194050
9 | 43:07.26 | 5:14.38 | 194051 | 217638
10 | 48:21.64 | 5:24.28 | 217639 | 241966
11 | 53:46.17 | 4:50.24 | 241967 | 263740
12 | 58:36.41 | 6:28.56 | 263741 | 292896
Характеристики диапазона извлечения и сообщения об ошибках
Выбранный диапазон
Имя файла F:МОИ РАЗДАЧИАУДИОКНИГИРоулинг Джоан Кэтлин - Гарри ПоттерКнига 2 - Гарри Поттер и Тайная комната [9 CD]�5Гарри Поттер и Тайная комната - 05.wav
Пиковый уровень 99.8 %
Скорость извлечения 46.3 X
Качество диапазона 99.9 %
CRC теста 93415FB4
CRC копии 93415FB4
Копирование... OK
Ошибок не произошло
Конец отчёта
==== Контрольная сумма отчёта 4F3911D9409FA4E0EF1BB3C7099ED1CF3731C24B61291ACA5DA7AA85D6FA09B9 ====


Exact Audio Copy V1.0 beta 2 from 29. April 2011
Отчёт EAC об извлечении, выполненном 20. августа 2011, 11:44
- / Гарри Поттер и Тайная комната - 06
Дисковод: Generic DVD-ROM Adapter: 4 ID: 0
Режим чтения : Достоверность
Использование точного потока : Да
Отключение кэша аудио : Да
Использование указателей C2 : Нет
Коррекция смещения при чтении : 0
Способность читать области Lead-in и Lead-out : Нет
Заполнение пропущенных сэмплов тишиной : Да
Удаление блоков с тишиной в начале и конце : Нет
При вычислениях CRC использовались нулевые сэмплы : Да
Интерфейс : Встроенный Win32-интерфейс для Win NT/2000
Выходной формат : Пользовательский кодировщик
Выбранный битрейт : 128 kBit/s
Качество : Высокий
Добавление ID3-тега : Нет
Утилита сжатия : D:PORTABLE SOFTExact Audio CopyFlacflac.exe
Дополнительные параметры : -V -8 -T "Date=%year%" -T "Genre=%genre%" %source%
TOC извлечённого CD
Трек | Старт | Длительность | Начальный сектор | Конечный сектор
---------------------------------------------------------------------
1 | 0:00.00 | 5:10.27 | 0 | 23276
2 | 5:10.27 | 4:49.73 | 23277 | 45024
3 | 10:00.25 | 5:05.52 | 45025 | 67951
4 | 15:06.02 | 4:55.72 | 67952 | 90148
5 | 20:01.74 | 5:16.05 | 90149 | 113853
6 | 25:18.04 | 5:09.35 | 113854 | 137063
7 | 30:27.39 | 4:59.49 | 137064 | 159537
8 | 35:27.13 | 3:04.08 | 159538 | 173345
9 | 38:31.21 | 5:01.43 | 173346 | 195963
10 | 43:32.64 | 5:15.60 | 195964 | 219648
11 | 48:48.49 | 5:04.33 | 219649 | 242481
12 | 53:53.07 | 5:23.28 | 242482 | 266734
13 | 59:16.35 | 5:29.54 | 266735 | 291463
14 | 64:46.14 | 5:24.72 | 291464 | 315835
15 | 70:11.11 | 4:52.53 | 315836 | 337788
16 | 75:03.64 | 4:37.20 | 337789 | 358583
Характеристики диапазона извлечения и сообщения об ошибках
Выбранный диапазон
Имя файла F:МОИ РАЗДАЧИАУДИОКНИГИРоулинг Джоан Кэтлин - Гарри ПоттерКнига 2 - Гарри Поттер и Тайная комната [9 CD]�6Гарри Поттер и Тайная комната - 06.wav
Пиковый уровень 93.6 %
Скорость извлечения 51.2 X
Качество диапазона 99.9 %
CRC теста 1D1E051D
CRC копии 1D1E051D
Копирование... OK
Ошибок не произошло
Конец отчёта
==== Контрольная сумма отчёта 07E44E8E31FDEA8B9FF414ED98D4FDF028488E88284DA13C9BA46CD2D0ADF9ED ====


Exact Audio Copy V1.0 beta 2 from 29. April 2011
Отчёт EAC об извлечении, выполненном 20. августа 2011, 11:52
- / Гарри Поттер и Тайная комната - 07
Дисковод: Generic DVD-ROM Adapter: 4 ID: 0
Режим чтения : Достоверность
Использование точного потока : Да
Отключение кэша аудио : Да
Использование указателей C2 : Нет
Коррекция смещения при чтении : 0
Способность читать области Lead-in и Lead-out : Нет
Заполнение пропущенных сэмплов тишиной : Да
Удаление блоков с тишиной в начале и конце : Нет
При вычислениях CRC использовались нулевые сэмплы : Да
Интерфейс : Встроенный Win32-интерфейс для Win NT/2000
Выходной формат : Пользовательский кодировщик
Выбранный битрейт : 128 kBit/s
Качество : Высокий
Добавление ID3-тега : Нет
Утилита сжатия : D:PORTABLE SOFTExact Audio CopyFlacflac.exe
Дополнительные параметры : -V -8 -T "Date=%year%" -T "Genre=%genre%" %source%
TOC извлечённого CD
Трек | Старт | Длительность | Начальный сектор | Конечный сектор
---------------------------------------------------------------------
1 | 0:00.00 | 4:47.54 | 0 | 21578
2 | 4:47.54 | 5:55.52 | 21579 | 48255
3 | 10:43.31 | 4:59.56 | 48256 | 70736
4 | 15:43.12 | 5:09.28 | 70737 | 93939
5 | 20:52.40 | 5:13.20 | 93940 | 117434
6 | 26:05.60 | 5:16.73 | 117435 | 141207
7 | 31:22.58 | 6:35.45 | 141208 | 170877
8 | 37:58.28 | 4:28.57 | 170878 | 191034
9 | 42:27.10 | 5:29.44 | 191035 | 215753
10 | 47:56.54 | 5:16.11 | 215754 | 239464
11 | 53:12.65 | 5:11.03 | 239465 | 262792
12 | 58:23.68 | 5:00.46 | 262793 | 285338
13 | 63:24.39 | 5:13.58 | 285339 | 308871
Характеристики диапазона извлечения и сообщения об ошибках
Выбранный диапазон
Имя файла F:МОИ РАЗДАЧИАУДИОКНИГИРоулинг Джоан Кэтлин - Гарри ПоттерКнига 2 - Гарри Поттер и Тайная комната [9 CD]�7Гарри Поттер и Тайная комната - 07.wav
Пиковый уровень 95.7 %
Скорость извлечения 53.9 X
Качество диапазона 100.0 %
CRC теста B2D6CE17
CRC копии B2D6CE17
Копирование... OK
Ошибок не произошло
Конец отчёта
==== Контрольная сумма отчёта 348A452840B8CFBF55106F62EE67C8F0CCFF7DB3379FAB9C16905DD764B1F9A9 ====


Exact Audio Copy V1.0 beta 2 from 29. April 2011
Отчёт EAC об извлечении, выполненном 20. августа 2011, 12:01
- / Гарри Поттер и Тайная комната - 08
Дисковод: Generic DVD-ROM Adapter: 4 ID: 0
Режим чтения : Достоверность
Использование точного потока : Да
Отключение кэша аудио : Да
Использование указателей C2 : Нет
Коррекция смещения при чтении : 0
Способность читать области Lead-in и Lead-out : Нет
Заполнение пропущенных сэмплов тишиной : Да
Удаление блоков с тишиной в начале и конце : Нет
При вычислениях CRC использовались нулевые сэмплы : Да
Интерфейс : Встроенный Win32-интерфейс для Win NT/2000
Выходной формат : Пользовательский кодировщик
Выбранный битрейт : 128 kBit/s
Качество : Высокий
Добавление ID3-тега : Нет
Утилита сжатия : D:PORTABLE SOFTExact Audio CopyFlacflac.exe
Дополнительные параметры : -V -8 -T "Date=%year%" -T "Genre=%genre%" %source%
TOC извлечённого CD
Трек | Старт | Длительность | Начальный сектор | Конечный сектор
---------------------------------------------------------------------
1 | 0:00.00 | 5:02.43 | 0 | 22692
2 | 5:02.43 | 5:07.47 | 22693 | 45764
3 | 10:10.15 | 4:52.43 | 45765 | 67707
4 | 15:02.58 | 5:15.70 | 67708 | 91402
5 | 20:18.53 | 6:08.34 | 91403 | 119036
6 | 26:27.12 | 4:56.42 | 119037 | 141278
7 | 31:23.54 | 3:45.33 | 141279 | 158186
8 | 35:09.12 | 5:21.19 | 158187 | 182280
9 | 40:30.31 | 5:05.16 | 182281 | 205171
10 | 45:35.47 | 5:14.51 | 205172 | 228772
11 | 50:50.23 | 5:11.62 | 228773 | 252159
12 | 56:02.10 | 4:12.39 | 252160 | 271098
13 | 60:14.49 | 5:01.30 | 271099 | 293703
14 | 65:16.04 | 5:02.63 | 293704 | 316416
15 | 70:18.67 | 3:17.37 | 316417 | 331228
16 | 73:36.29 | 3:58.07 | 331229 | 349085
Характеристики диапазона извлечения и сообщения об ошибках
Выбранный диапазон
Имя файла F:МОИ РАЗДАЧИАУДИОКНИГИРоулинг Джоан Кэтлин - Гарри ПоттерКнига 2 - Гарри Поттер и Тайная комната [9 CD]�8Гарри Поттер и Тайная комната - 08.wav
Пиковый уровень 96.6 %
Скорость извлечения 52.6 X
Качество диапазона 100.0 %
CRC теста 57CE599D
CRC копии 57CE599D
Копирование... OK
Ошибок не произошло
Конец отчёта
==== Контрольная сумма отчёта 87657AE3FEEDBEF3A2E8D95D7C2694CF2A0FE58C1179DFF5E1CB7C97F28FCDB0 ====


Exact Audio Copy V1.0 beta 2 from 29. April 2011
Отчёт EAC об извлечении, выполненном 20. августа 2011, 12:08
- / Гарри Поттер и Тайная комната - 09
Дисковод: Generic DVD-ROM Adapter: 4 ID: 0
Режим чтения : Достоверность
Использование точного потока : Да
Отключение кэша аудио : Да
Использование указателей C2 : Нет
Коррекция смещения при чтении : 0
Способность читать области Lead-in и Lead-out : Нет
Заполнение пропущенных сэмплов тишиной : Да
Удаление блоков с тишиной в начале и конце : Нет
При вычислениях CRC использовались нулевые сэмплы : Да
Интерфейс : Встроенный Win32-интерфейс для Win NT/2000
Выходной формат : Пользовательский кодировщик
Выбранный битрейт : 128 kBit/s
Качество : Высокий
Добавление ID3-тега : Нет
Утилита сжатия : D:PORTABLE SOFTExact Audio CopyFlacflac.exe
Дополнительные параметры : -V -8 -T "Date=%year%" -T "Genre=%genre%" %source%
TOC извлечённого CD
Трек | Старт | Длительность | Начальный сектор | Конечный сектор
---------------------------------------------------------------------
1 | 0:00.00 | 4:21.14 | 0 | 19588
2 | 4:21.14 | 5:18.53 | 19589 | 43491
3 | 9:39.67 | 5:09.05 | 43492 | 66671
4 | 14:48.72 | 5:30.21 | 66672 | 91442
5 | 20:19.18 | 5:15.72 | 91443 | 115139
6 | 25:35.15 | 5:14.53 | 115140 | 138742
7 | 30:49.68 | 5:01.21 | 138743 | 161338
8 | 35:51.14 | 4:47.70 | 161339 | 182933
9 | 40:39.09 | 4:59.34 | 182934 | 205392
10 | 45:38.43 | 4:56.40 | 205393 | 227632
11 | 50:35.08 | 5:24.27 | 227633 | 251959
12 | 55:59.35 | 5:10.57 | 251960 | 275266
13 | 61:10.17 | 4:18.44 | 275267 | 294660
14 | 65:28.61 | 4:27.34 | 294661 | 314719
Характеристики диапазона извлечения и сообщения об ошибках
Выбранный диапазон
Имя файла F:МОИ РАЗДАЧИАУДИОКНИГИРоулинг Джоан Кэтлин - Гарри ПоттерКнига 2 - Гарри Поттер и Тайная комната [9 CD]�9Гарри Поттер и Тайная комната - 09.wav
Пиковый уровень 89.2 %
Скорость извлечения 62.9 X
Качество диапазона 100.0 %
CRC теста 03B8B4B8
CRC копии 03B8B4B8
Копирование... OK
Ошибок не произошло
Конец отчёта
==== Контрольная сумма отчёта D30597CBBAAAB2F4068F980BC25BCAD358500E334A7F8E3932317F98B1C2EA61 ====



   Похожие торренты   Торрент   Размер 
В этой теме нет новых непрочитанных сообщений. Роулинг Джоан Кэтлин - Гарри Поттер и Философский камень (2006) FLAC

23 | 4

1.58 ГБ

В этой теме нет новых непрочитанных сообщений. Роулинг Джоан Кэтлин - Гарри Поттер и Узник Азкабана (2006) FLAC

6 | 3

1.83 ГБ

В этой теме нет новых непрочитанных сообщений. Роулинг Джоан Кейтлин - Гарри Поттер и тайная комната (1998) MP3

9 | 4

243.29 МБ

В этой теме нет новых непрочитанных сообщений. Роулинг Джоан Кэтлин - Гарри Поттер. Книги 1-7 (2006-2011) MP3

226 | 159

3.42 ГБ

В этой теме нет новых непрочитанных сообщений. Роулинг Джоан Кэтлин - Гарри Поттер. Книги 1-7 (2006-2011) MP3

512 | 168

6.75 ГБ

В этой теме нет новых непрочитанных сообщений. Роулинг Джоан Кэтлин - Гарри Поттер. Книги 1-6 (2012) MP3

10 | 5

6.19 ГБ

В этой теме нет новых непрочитанных сообщений. Роулинг Джоан Кэтлин - Серия книг "Гарри Поттер" (1997-2007) RTF, MOBI

793 | 28

46.4 МБ




Вы не можете начинать темы
Вы не можете отвечать на сообщения
Вы не можете редактировать свои сообщения
Вы не можете удалять свои сообщения
Вы не можете добавлять вложения

Перейти:  
Для Мосгорсуда, Роскомнадзора и рекламодателей: mosgorsud-torrent[собачка]yandex.ru
 Вход
ppkBB3cker v.2 © 2008-2014 @ PPK
[ Time : 0.587s | 15 Queries | GZIP : Off ]

Торрент трекер RUTOR.IN, Не можете зайти на rutor.org? Какой новый адрес рутор? Какое зеркало рутор? Не работает rutor.org и зеркала? Тогда наш торрент специально для вас. Rutor.in неофициальное зеркало rutor. В случае если у Вас заблокирован rutor или вдруг Вы не можете на него зайти, то Вы без труда сможете скачать бесплатно и без рекламы последние новинки кино, игр, сериалов и прочего у нас, на Rutor.in. Не нужно использовать прокси, чтобы зайти на рутор, достаточно воспользоваться нашим ресурсом. Все новые фильмы, игры, сериалы, книги и музыка за 2013 и 2014 годы через торрент бесплатно. Скачивайте фильмы в хорошем качестве, игры для пк, xbox, playstation без регистрации. У нас вы найдете новые Зарубежные сериалы и Русские сериалы 2013, 2014, 2015 годов. Оставайтесь с нами, качайте любимые фильмы, игры, сериалы, книги и музыку.
cron