img image001 image001 image001 image001 image001 image001 image001 image001 image001 image001 image001 image001 image001 image001 image001

Planets Sun Sun Sun
Статистика раздачи
Автор: Снежана | Размер: 1.58 ГБ | Добавлен: 05 авг 2013
Раздают: 23    Качают: 4
Скачать торрент
Скачать торрент
Описание торрента

СообщениеДобавлено: 05 авг 2013 


Оригинальное название: Harry Potter and the Philosopher's Stone
Жанр: Фэнтези, приключения
Год выпуска: 2006
Издательство: Издательский дом "Союз"
ISBN: 0224-06
Перевод: И. В. Оранский
По изданию: Москва, "Росмэн-Издат", 2002 г.
Конвертация: geka9999
Аудио кодек: FLAC (*.flac)
Битрейт аудио: lossless
Тип рипа: image+.cue
Исполнитель: Клюквин Александр
Тип : Аудиокнига
Источник (релизер): SPQR
Общее время звучания: 11:16:59
«Гарри Поттер» (англ. «Harry Potter») — популярная серия романов английской писательницы Дж. К. Роулинг. Каждый из романов описывает один год из жизни главного героя — мальчика-волшебника по имени Гарри Поттер. Все семь частей стали бестселлерами и переведены на множество языков, в том числе на русский. Последняя, седьмая, часть появилась в продаже 21 июля 2007. На русском языке — 13 октября 2007. Общий тираж книг составил более 325 миллионов экземпляров (на 64 языках) — больше, чем у какой-либо другой серии детских книг.

* Гарри Поттер и философский камень
* Гарри Поттер и Тайная комната
* Гарри Поттер и узник Азкабана
* Гарри Поттер и Кубок Огня
* Гарри Поттер и Орден Феникса
* Гарри Поттер и Принц-полукровка
* Гарри Поттер и Дары Смерти
* Гарри Поттер: предыстория

Книга 1 - Гарри Поттер и философский камень [10 CD]:
Описание: Издательский Дом "СОЮЗ" представляет в серии аудиокниг "Детская литература" аудиоверсию книги Дж.К. Ролинг "Гарри Поттер и философский камень". Теперь Гарри Поттер говорит по-русски! Из десяти голосов, Джоан Ролинг выбрала голос Александра Клюквина. Именно так, по мнению автора, должен звучать голос Гарри Поттера!
Гарри Поттер и не подозревал, насколько он отличается от обычных людей. А все из-за того, что воспитывался он в семье жалких маглов - своих тетушки и дядюшки, до смерти боявшихся, что Гарри узнает о том, что на самом деле он самый настоящий волшебник, такой же, как и его родители. Но все изменилось, после того, как Гарри пригласили учиться в никому неизвестную школу волшебников, где он смог узнать тайну своего появления на свет. С момента неожиданной встречи с милым великаном, знакомства с необычным учебным процессом и удивительным факультетом этой необыкновенной школы, Гарри глубоко погрузился в волшебный мир, о существовании которого он даже не догадывался, но который был так близок его предназначению.

CD1
Глава 1 Мальчик, который выжил треки 1-8
Глава 2 Исчезнувшее стекло треки 9-14
Время звучания: 01:06:36
CD2
Глава 3 Письма невесть от кого треки 1-6
Глава 4 Хранитель ключей треки 7-13
Время звучания: 01:06:27
CD3
Глава 5 Косой переулок треки 1-12
Глава 6 Путешествие с платформы девять и три четверти треки 13-16
Время звучания: 01:06:42
CD4
Глава 6 Путешествие с платформы девять и три четверти (продолжение) треки 1-7
Глава 7 Распределяющая шляпа треки 8-15
Время звучания: 01:10:30
CD5
Глава 8 Специалист по волшебному зельеварению треки 1-6
Глава 9 Полночноя дуэль треки 7-14
Время звучания: 01:10:05
CD6
Глава 10 Хеллоуин треки 1-7
Глава 11 Квиддич треки 8-13
Время звучания: 01:07:53
CD7
Глава 12 Зеркало еиналеж треки 1-10
Глава 13 Николас Фламель треки 11-15
Время звучания: 01:17:34
CD8
Глава 14 Дракон по имени Норберт треки 1-6
Глава 15 Запретный лес треки 7-14
Время звучания: 01:11:36
CD9
Глава 16 Прыжок в люк треки 1-11
Время звучания: 00:55:12
CD10
Глава 17 Человек с двумя лицами треки 1-11
Время звучания: 00:54:19

Логи создания рипов:

Exact Audio Copy V1.0 beta 2 from 29. April 2011
Отчёт EAC об извлечении, выполненном 6. августа 2011, 11:42
- / Гарри Поттер и Философский камень - 01
Дисковод: Generic DVD-ROM Adapter: 4 ID: 0
Режим чтения : Достоверность
Использование точного потока : Да
Отключение кэша аудио : Да
Использование указателей C2 : Нет
Коррекция смещения при чтении : 0
Способность читать области Lead-in и Lead-out : Нет
Заполнение пропущенных сэмплов тишиной : Да
Удаление блоков с тишиной в начале и конце : Нет
При вычислениях CRC использовались нулевые сэмплы : Да
Интерфейс : Встроенный Win32-интерфейс для Win NT/2000
Выходной формат : Пользовательский кодировщик
Выбранный битрейт : 128 kBit/s
Качество : Высокий
Добавление ID3-тега : Нет
Утилита сжатия : D:PORTABLE SOFTExact Audio CopyFlacflac.exe
Дополнительные параметры : -V -8 -T "Date=%year%" -T "Genre=%genre%" %source%
TOC извлечённого CD
Трек | Старт | Длительность | Начальный сектор | Конечный сектор
---------------------------------------------------------------------
1 | 0:00.00 | 5:02.05 | 0 | 22654
2 | 5:02.05 | 4:57.42 | 22655 | 44971
3 | 9:59.47 | 4:49.12 | 44972 | 66658
4 | 14:48.59 | 5:02.50 | 66659 | 89358
5 | 19:51.34 | 5:25.69 | 89359 | 113802
6 | 25:17.28 | 5:12.00 | 113803 | 137202
7 | 30:29.28 | 4:43.72 | 137203 | 158499
8 | 35:13.25 | 4:02.17 | 158500 | 176666
9 | 39:15.42 | 5:05.44 | 176667 | 199585
10 | 44:21.11 | 5:05.41 | 199586 | 222501
11 | 49:26.52 | 5:10.16 | 222502 | 245767
12 | 54:36.68 | 5:19.12 | 245768 | 269704
13 | 59:56.05 | 3:45.11 | 269705 | 286590
14 | 63:41.16 | 2:54.69 | 286591 | 299709
Характеристики диапазона извлечения и сообщения об ошибках
Выбранный диапазон
Имя файла D:ЗАГРУЗКИКнига 1 - Гарри Поттер и Философский камень [10 CD]�1Гарри Поттер и Философский камень - 01.wav
Пиковый уровень 99.0 %
Скорость извлечения 61.7 X
Качество диапазона 100.0 %
CRC теста 36EBFE4C
CRC копии 36EBFE4C
Копирование... OK
Ошибок не произошло
Конец отчёта
==== Контрольная сумма отчёта 6C317A533ECEB0959707305A83F9CFCAA26DD14A13698E602AA7FE5C06F9D3C9 ====


Exact Audio Copy V1.0 beta 2 from 29. April 2011
Отчёт EAC об извлечении, выполненном 7. августа 2011, 2:13
- / Гарри Поттер и Философский камень - 02
Дисковод: Generic DVD-ROM Adapter: 4 ID: 0
Режим чтения : Достоверность
Использование точного потока : Да
Отключение кэша аудио : Да
Использование указателей C2 : Нет
Коррекция смещения при чтении : 0
Способность читать области Lead-in и Lead-out : Нет
Заполнение пропущенных сэмплов тишиной : Да
Удаление блоков с тишиной в начале и конце : Нет
При вычислениях CRC использовались нулевые сэмплы : Да
Интерфейс : Встроенный Win32-интерфейс для Win NT/2000
Выходной формат : Пользовательский кодировщик
Выбранный битрейт : 128 kBit/s
Качество : Высокий
Добавление ID3-тега : Нет
Утилита сжатия : D:PORTABLE SOFTExact Audio CopyFlacflac.exe
Дополнительные параметры : -V -8 -T "Date=%year%" -T "Genre=%genre%" %source%
TOC извлечённого CD
Трек | Старт | Длительность | Начальный сектор | Конечный сектор
---------------------------------------------------------------------
1 | 0:00.00 | 5:21.24 | 0 | 24098
2 | 5:21.24 | 4:52.30 | 24099 | 46028
3 | 10:13.54 | 5:06.65 | 46029 | 69043
4 | 15:20.44 | 5:06.37 | 69044 | 92030
5 | 20:27.06 | 5:11.19 | 92031 | 115374
6 | 25:38.25 | 6:32.56 | 115375 | 144830
7 | 32:11.06 | 5:07.48 | 144831 | 167903
8 | 37:18.54 | 5:01.31 | 167904 | 190509
9 | 42:20.10 | 4:59.05 | 190510 | 212939
10 | 47:19.15 | 5:07.52 | 212940 | 236016
11 | 52:26.67 | 4:58.64 | 236017 | 258430
12 | 57:25.56 | 4:58.44 | 258431 | 280824
13 | 62:24.25 | 4:03.20 | 280825 | 299069
Характеристики диапазона извлечения и сообщения об ошибках
Выбранный диапазон
Имя файла D:ЗАГРУЗКИКнига 1 - Гарри Поттер и Философский камень [10 CD]�2Гарри Поттер и Философский камень - 02.wav
Пиковый уровень 60.4 %
Скорость извлечения 50.3 X
Качество диапазона 100.0 %
CRC теста F71313F9
CRC копии F71313F9
Копирование... OK
Ошибок не произошло
Конец отчёта
==== Контрольная сумма отчёта 7F638710EDD7018C3C68F8AE26686C92FCF7BC43E67638F11682EFE55308D389 ====


Exact Audio Copy V1.0 beta 2 from 29. April 2011
Отчёт EAC об извлечении, выполненном 7. августа 2011, 12:42
- / Гарри Поттер и Философский камень - 03
Дисковод: Generic DVD-ROM Adapter: 4 ID: 0
Режим чтения : Достоверность
Использование точного потока : Да
Отключение кэша аудио : Да
Использование указателей C2 : Нет
Коррекция смещения при чтении : 0
Способность читать области Lead-in и Lead-out : Нет
Заполнение пропущенных сэмплов тишиной : Да
Удаление блоков с тишиной в начале и конце : Нет
При вычислениях CRC использовались нулевые сэмплы : Да
Интерфейс : Встроенный Win32-интерфейс для Win NT/2000
Выходной формат : Пользовательский кодировщик
Выбранный битрейт : 128 kBit/s
Качество : Высокий
Добавление ID3-тега : Нет
Утилита сжатия : D:PORTABLE SOFTExact Audio CopyFlacflac.exe
Дополнительные параметры : -V -8 -T "Date=%year%" -T "Genre=%genre%" %source%
TOC извлечённого CD
Трек | Старт | Длительность | Начальный сектор | Конечный сектор
---------------------------------------------------------------------
1 | 0:00.00 | 5:33.24 | 0 | 24998
2 | 5:33.24 | 4:58.16 | 24999 | 47364
3 | 10:31.40 | 5:01.66 | 47365 | 70005
4 | 15:33.31 | 5:10.58 | 70006 | 93313
5 | 20:44.14 | 4:49.51 | 93314 | 115039
6 | 25:33.65 | 4:56.52 | 115040 | 137291
7 | 30:30.42 | 4:59.53 | 137292 | 159769
8 | 35:30.20 | 5:03.50 | 159770 | 182544
9 | 40:33.70 | 5:25.74 | 182545 | 206993
10 | 45:59.69 | 5:06.74 | 206994 | 230017
11 | 51:06.68 | 4:53.31 | 230018 | 252023
12 | 56:00.24 | 3:03.29 | 252024 | 265777
13 | 59:03.53 | 4:55.43 | 265778 | 287945
14 | 63:59.21 | 5:05.44 | 287946 | 310864
15 | 69:04.65 | 4:15.37 | 310865 | 330026
16 | 73:20.27 | 3:22.01 | 330027 | 345177
Характеристики диапазона извлечения и сообщения об ошибках
Выбранный диапазон
Имя файла D:ЗАГРУЗКИКнига 1 - Гарри Поттер и Философский камень [10 CD]�3Гарри Поттер и Философский камень - 03.wav
Пиковый уровень 60.3 %
Скорость извлечения 65.1 X
Качество диапазона 100.0 %
CRC теста FB37E57A
CRC копии FB37E57A
Копирование... OK
Ошибок не произошло
Конец отчёта
==== Контрольная сумма отчёта 7F94B19AD568D2D492177A0218696BBD4EC8AE9B66F3DEE1229B31ED9DB4A738 ====


Exact Audio Copy V1.0 beta 2 from 29. April 2011
Отчёт EAC об извлечении, выполненном 7. августа 2011, 12:55
- / Гарри Поттер и Философский камень - 04
Дисковод: Generic DVD-ROM Adapter: 4 ID: 0
Режим чтения : Достоверность
Использование точного потока : Да
Отключение кэша аудио : Да
Использование указателей C2 : Нет
Коррекция смещения при чтении : 0
Способность читать области Lead-in и Lead-out : Нет
Заполнение пропущенных сэмплов тишиной : Да
Удаление блоков с тишиной в начале и конце : Нет
При вычислениях CRC использовались нулевые сэмплы : Да
Интерфейс : Встроенный Win32-интерфейс для Win NT/2000
Выходной формат : Пользовательский кодировщик
Выбранный битрейт : 128 kBit/s
Качество : Высокий
Добавление ID3-тега : Нет
Утилита сжатия : D:PORTABLE SOFTExact Audio CopyFlacflac.exe
Дополнительные параметры : -V -8 -T "Date=%year%" -T "Genre=%genre%" %source%
TOC извлечённого CD
Трек | Старт | Длительность | Начальный сектор | Конечный сектор
---------------------------------------------------------------------
1 | 0:00.00 | 5:18.46 | 0 | 23895
2 | 5:18.46 | 5:05.12 | 23896 | 46782
3 | 10:23.58 | 5:06.28 | 46783 | 69760
4 | 15:30.11 | 5:12.19 | 69761 | 93179
5 | 20:42.30 | 5:05.11 | 93180 | 116065
6 | 25:47.41 | 3:37.48 | 116066 | 132388
7 | 29:25.14 | 2:53.36 | 132389 | 145399
8 | 32:18.50 | 4:44.04 | 145400 | 166703
9 | 37:02.54 | 5:30.44 | 166704 | 191497
10 | 42:33.23 | 4:57.48 | 191498 | 213820
11 | 47:30.71 | 5:04.64 | 213821 | 236684
12 | 52:35.60 | 5:00.61 | 236685 | 259245
13 | 57:36.46 | 5:02.10 | 259246 | 281905
14 | 62:38.56 | 5:10.26 | 281906 | 305181
15 | 67:49.07 | 2:41.49 | 305182 | 317305
Характеристики диапазона извлечения и сообщения об ошибках
Выбранный диапазон
Имя файла D:ЗАГРУЗКИКнига 1 - Гарри Поттер и Философский камень [10 CD]�4Гарри Поттер и Философский камень - 04.wav
Пиковый уровень 63.0 %
Скорость извлечения 58.7 X
Качество диапазона 100.0 %
CRC теста E7136DD7
CRC копии E7136DD7
Копирование... OK
Ошибок не произошло
Конец отчёта
==== Контрольная сумма отчёта A2723894A4BBB29C659D600F4A1C66F54ED939EB3EF9FCB5FC08BDFFC3BB4806 ====


Exact Audio Copy V1.0 beta 2 from 29. April 2011
Отчёт EAC об извлечении, выполненном 7. августа 2011, 13:10
- / Гарри Поттер и Философский камень - 05
Дисковод: Generic DVD-ROM Adapter: 4 ID: 0
Режим чтения : Достоверность
Использование точного потока : Да
Отключение кэша аудио : Да
Использование указателей C2 : Нет
Коррекция смещения при чтении : 0
Способность читать области Lead-in и Lead-out : Нет
Заполнение пропущенных сэмплов тишиной : Да
Удаление блоков с тишиной в начале и конце : Нет
При вычислениях CRC использовались нулевые сэмплы : Да
Интерфейс : Встроенный Win32-интерфейс для Win NT/2000
Выходной формат : Пользовательский кодировщик
Выбранный битрейт : 128 kBit/s
Качество : Высокий
Добавление ID3-тега : Нет
Утилита сжатия : D:PORTABLE SOFTExact Audio CopyFlacflac.exe
Дополнительные параметры : -V -8 -T "Date=%year%" -T "Genre=%genre%" %source%
TOC извлечённого CD
Трек | Старт | Длительность | Начальный сектор | Конечный сектор
---------------------------------------------------------------------
1 | 0:00.00 | 5:16.55 | 0 | 23754
2 | 5:16.55 | 5:02.27 | 23755 | 46431
3 | 10:19.07 | 5:05.32 | 46432 | 69338
4 | 15:24.39 | 5:12.49 | 69339 | 92787
5 | 20:37.13 | 3:39.05 | 92788 | 109217
6 | 24:16.18 | 2:55.09 | 109218 | 122351
7 | 27:11.27 | 6:18.71 | 122352 | 150772
8 | 33:30.23 | 5:04.37 | 150773 | 173609
9 | 38:34.60 | 5:32.14 | 173610 | 198523
10 | 44:06.74 | 5:09.30 | 198524 | 221728
11 | 49:16.29 | 4:58.15 | 221729 | 244093
12 | 54:14.44 | 5:07.59 | 244094 | 267177
13 | 59:22.28 | 5:12.30 | 267178 | 290607
14 | 64:34.58 | 5:30.60 | 290608 | 315417
Характеристики диапазона извлечения и сообщения об ошибках
Выбранный диапазон
Имя файла D:ЗАГРУЗКИКнига 1 - Гарри Поттер и Философский камень [10 CD]�5Гарри Поттер и Философский камень - 05.wav
Пиковый уровень 68.0 %
Скорость извлечения 57.3 X
Качество диапазона 100.0 %
CRC теста 4A167B3F
CRC копии 4A167B3F
Копирование... OK
Ошибок не произошло
Конец отчёта
==== Контрольная сумма отчёта 584ECFD7276AF01C68B2ABDB05DF1F03A140F43E6E413CA4EBF153E27FE3FB83 ====


Exact Audio Copy V1.0 beta 2 from 29. April 2011
Отчёт EAC об извлечении, выполненном 7. августа 2011, 13:23
- / Гарри Поттер и Философский камень - 06
Дисковод: Generic DVD-ROM Adapter: 4 ID: 0
Режим чтения : Достоверность
Использование точного потока : Да
Отключение кэша аудио : Да
Использование указателей C2 : Нет
Коррекция смещения при чтении : 0
Способность читать области Lead-in и Lead-out : Нет
Заполнение пропущенных сэмплов тишиной : Да
Удаление блоков с тишиной в начале и конце : Нет
При вычислениях CRC использовались нулевые сэмплы : Да
Интерфейс : Встроенный Win32-интерфейс для Win NT/2000
Выходной формат : Пользовательский кодировщик
Выбранный битрейт : 128 kBit/s
Качество : Высокий
Добавление ID3-тега : Нет
Утилита сжатия : D:PORTABLE SOFTExact Audio CopyFlacflac.exe
Дополнительные параметры : -V -8 -T "Date=%year%" -T "Genre=%genre%" %source%
TOC извлечённого CD
Трек | Старт | Длительность | Начальный сектор | Конечный сектор
---------------------------------------------------------------------
1 | 0:00.00 | 5:26.03 | 0 | 24452
2 | 5:26.03 | 5:05.08 | 24453 | 47335
3 | 10:31.11 | 5:11.52 | 47336 | 70712
4 | 15:42.63 | 5:09.61 | 70713 | 93948
5 | 20:52.49 | 4:53.53 | 93949 | 115976
6 | 25:46.27 | 5:36.15 | 115977 | 141191
7 | 31:22.42 | 6:11.40 | 141192 | 169056
8 | 37:34.07 | 5:06.07 | 169057 | 192013
9 | 42:40.14 | 4:49.67 | 192014 | 213755
10 | 47:30.06 | 4:53.57 | 213756 | 235787
11 | 52:23.63 | 5:00.02 | 235788 | 258289
12 | 57:23.65 | 5:04.11 | 258290 | 281100
13 | 62:28.01 | 5:25.17 | 281101 | 305492
Характеристики диапазона извлечения и сообщения об ошибках
Выбранный диапазон
Имя файла D:ЗАГРУЗКИКнига 1 - Гарри Поттер и Философский камень [10 CD]�6Гарри Поттер и Философский камень - 06.wav
Пиковый уровень 70.0 %
Скорость извлечения 50.2 X
Качество диапазона 100.0 %
CRC теста 66BB5606
CRC копии 66BB5606
Копирование... OK
Ошибок не произошло
Конец отчёта
==== Контрольная сумма отчёта 154EE23FBC268584BAD202407A5844D866AA1AC6D70E4F1274BC8B34414B9F41 ====


Exact Audio Copy V1.0 beta 2 from 29. April 2011
Отчёт EAC об извлечении, выполненном 7. августа 2011, 13:36
- / Гарри Поттер и Философский камень - 07
Дисковод: Generic DVD-ROM Adapter: 4 ID: 0
Режим чтения : Достоверность
Использование точного потока : Да
Отключение кэша аудио : Да
Использование указателей C2 : Нет
Коррекция смещения при чтении : 0
Способность читать области Lead-in и Lead-out : Нет
Заполнение пропущенных сэмплов тишиной : Да
Удаление блоков с тишиной в начале и конце : Нет
При вычислениях CRC использовались нулевые сэмплы : Да
Интерфейс : Встроенный Win32-интерфейс для Win NT/2000
Выходной формат : Пользовательский кодировщик
Выбранный битрейт : 128 kBit/s
Качество : Высокий
Добавление ID3-тега : Нет
Утилита сжатия : D:PORTABLE SOFTExact Audio CopyFlacflac.exe
Дополнительные параметры : -V -8 -T "Date=%year%" -T "Genre=%genre%" %source%
TOC извлечённого CD
Трек | Старт | Длительность | Начальный сектор | Конечный сектор
---------------------------------------------------------------------
1 | 0:00.00 | 4:55.46 | 0 | 22170
2 | 4:55.46 | 5:03.54 | 22171 | 44949
3 | 9:59.25 | 5:07.45 | 44950 | 68019
4 | 15:06.70 | 5:07.27 | 68020 | 91071
5 | 20:14.22 | 5:09.48 | 91072 | 114294
6 | 25:23.70 | 4:41.27 | 114295 | 135396
7 | 30:05.22 | 5:19.58 | 135397 | 159379
8 | 35:25.05 | 4:55.60 | 159380 | 181564
9 | 40:20.65 | 4:39.63 | 181565 | 202552
10 | 45:00.53 | 5:53.69 | 202553 | 229096
11 | 50:54.47 | 5:04.65 | 229097 | 251961
12 | 55:59.37 | 5:05.61 | 251962 | 274897
13 | 61:05.23 | 4:51.37 | 274898 | 296759
14 | 65:56.60 | 4:55.40 | 296760 | 318924
15 | 70:52.25 | 6:41.58 | 318925 | 349057
Характеристики диапазона извлечения и сообщения об ошибках
Выбранный диапазон
Имя файла D:ЗАГРУЗКИКнига 1 - Гарри Поттер и Философский камень [10 CD]�7Гарри Поттер и Философский камень - 07.wav
Пиковый уровень 65.7 %
Скорость извлечения 54.9 X
Качество диапазона 100.0 %
CRC теста B2B9815D
CRC копии B2B9815D
Копирование... OK
Ошибок не произошло
Конец отчёта
==== Контрольная сумма отчёта 6290FB2C265198850F21746908CFA2E31922141535F754B2D5242775BFB264A3 ====


Exact Audio Copy V1.0 beta 2 from 29. April 2011
Отчёт EAC об извлечении, выполненном 7. августа 2011, 13:49
- / Гарри Поттер и Философский камень - 08
Дисковод: Generic DVD-ROM Adapter: 4 ID: 0
Режим чтения : Достоверность
Использование точного потока : Да
Отключение кэша аудио : Да
Использование указателей C2 : Нет
Коррекция смещения при чтении : 0
Способность читать области Lead-in и Lead-out : Нет
Заполнение пропущенных сэмплов тишиной : Да
Удаление блоков с тишиной в начале и конце : Нет
При вычислениях CRC использовались нулевые сэмплы : Да
Интерфейс : Встроенный Win32-интерфейс для Win NT/2000
Выходной формат : Пользовательский кодировщик
Выбранный битрейт : 128 kBit/s
Качество : Высокий
Добавление ID3-тега : Нет
Утилита сжатия : D:PORTABLE SOFTExact Audio CopyFlacflac.exe
Дополнительные параметры : -V -8 -T "Date=%year%" -T "Genre=%genre%" %source%
TOC извлечённого CD
Трек | Старт | Длительность | Начальный сектор | Конечный сектор
---------------------------------------------------------------------
1 | 0:00.00 | 5:12.21 | 0 | 23420
2 | 5:12.21 | 5:17.63 | 23421 | 47258
3 | 10:30.09 | 5:16.00 | 47259 | 70958
4 | 15:46.09 | 4:54.56 | 70959 | 93064
5 | 20:40.65 | 4:57.23 | 93065 | 115362
6 | 25:38.13 | 4:41.05 | 115363 | 136442
7 | 30:19.18 | 4:50.41 | 136443 | 158233
8 | 35:09.59 | 5:07.39 | 158234 | 181297
9 | 40:17.23 | 5:13.30 | 181298 | 204802
10 | 45:30.53 | 5:06.37 | 204803 | 227789
11 | 50:37.15 | 5:17.57 | 227790 | 251621
12 | 55:54.72 | 5:09.09 | 251622 | 274805
13 | 61:04.06 | 5:26.17 | 274806 | 299272
14 | 66:30.23 | 5:06.52 | 299273 | 322274
Характеристики диапазона извлечения и сообщения об ошибках
Выбранный диапазон
Имя файла D:ЗАГРУЗКИКнига 1 - Гарри Поттер и Философский камень [10 CD]�8Гарри Поттер и Философский камень - 08.wav
Пиковый уровень 65.5 %
Скорость извлечения 56.7 X
Качество диапазона 100.0 %
CRC теста 1DB1AFBC
CRC копии 1DB1AFBC
Копирование... OK
Ошибок не произошло
Конец отчёта
==== Контрольная сумма отчёта 7E7D0A13DCD19E41781F8A4D9D50799A72287A95ABC4CF927B94427920589A2B ====


Exact Audio Copy V1.0 beta 2 from 29. April 2011
Отчёт EAC об извлечении, выполненном 7. августа 2011, 13:58
- / Гарри Поттер и Философский камень - 09
Дисковод: Generic DVD-ROM Adapter: 4 ID: 0
Режим чтения : Достоверность
Использование точного потока : Да
Отключение кэша аудио : Да
Использование указателей C2 : Нет
Коррекция смещения при чтении : 0
Способность читать области Lead-in и Lead-out : Нет
Заполнение пропущенных сэмплов тишиной : Да
Удаление блоков с тишиной в начале и конце : Нет
При вычислениях CRC использовались нулевые сэмплы : Да
Интерфейс : Встроенный Win32-интерфейс для Win NT/2000
Выходной формат : Пользовательский кодировщик
Выбранный битрейт : 128 kBit/s
Качество : Высокий
Добавление ID3-тега : Нет
Утилита сжатия : D:PORTABLE SOFTExact Audio CopyFlacflac.exe
Дополнительные параметры : -V -8 -T "Date=%year%" -T "Genre=%genre%" %source%
TOC извлечённого CD
Трек | Старт | Длительность | Начальный сектор | Конечный сектор
---------------------------------------------------------------------
1 | 0:00.00 | 5:07.22 | 0 | 23046
2 | 5:07.22 | 4:55.72 | 23047 | 45243
3 | 10:03.19 | 5:07.25 | 45244 | 68293
4 | 15:10.44 | 5:06.66 | 68294 | 91309
5 | 20:17.35 | 5:00.15 | 91310 | 113824
6 | 25:17.50 | 5:04.46 | 113825 | 136670
7 | 30:22.21 | 5:06.62 | 136671 | 159682
8 | 35:29.08 | 4:55.60 | 159683 | 181867
9 | 40:24.68 | 5:16.18 | 181868 | 205585
10 | 45:41.11 | 4:55.04 | 205586 | 227714
11 | 50:36.15 | 4:36.49 | 227715 | 248463
Характеристики диапазона извлечения и сообщения об ошибках
Выбранный диапазон
Имя файла D:ЗАГРУЗКИКнига 1 - Гарри Поттер и Философский камень [10 CD]�9Гарри Поттер и Философский камень - 09.wav
Пиковый уровень 73.6 %
Скорость извлечения 56.2 X
Качество диапазона 100.0 %
CRC теста FAAAACDF
CRC копии FAAAACDF
Копирование... OK
Ошибок не произошло
Конец отчёта
==== Контрольная сумма отчёта 9714B971FB2DF4E8F3130186F645751EF6AC40465542B20D84775061C0B46171 ====


Exact Audio Copy V1.0 beta 2 from 29. April 2011
Отчёт EAC об извлечении, выполненном 7. августа 2011, 14:07
- / Гарри Поттер и Философский камень - 10
Дисковод: Generic DVD-ROM Adapter: 4 ID: 0
Режим чтения : Достоверность
Использование точного потока : Да
Отключение кэша аудио : Да
Использование указателей C2 : Нет
Коррекция смещения при чтении : 0
Способность читать области Lead-in и Lead-out : Нет
Заполнение пропущенных сэмплов тишиной : Да
Удаление блоков с тишиной в начале и конце : Нет
При вычислениях CRC использовались нулевые сэмплы : Да
Интерфейс : Встроенный Win32-интерфейс для Win NT/2000
Выходной формат : Пользовательский кодировщик
Выбранный битрейт : 128 kBit/s
Качество : Высокий
Добавление ID3-тега : Нет
Утилита сжатия : D:PORTABLE SOFTExact Audio CopyFlacflac.exe
Дополнительные параметры : -V -8 -T "Date=%year%" -T "Genre=%genre%" %source%
TOC извлечённого CD
Трек | Старт | Длительность | Начальный сектор | Конечный сектор
---------------------------------------------------------------------
1 | 0:00.00 | 5:10.57 | 0 | 23306
2 | 5:10.57 | 4:59.19 | 23307 | 45750
3 | 10:10.01 | 5:07.30 | 45751 | 68805
4 | 15:17.31 | 5:16.18 | 68806 | 92523
5 | 20:33.49 | 5:08.64 | 92524 | 115687
6 | 25:42.38 | 4:39.19 | 115688 | 136631
7 | 30:21.57 | 5:05.12 | 136632 | 159518
8 | 35:26.69 | 5:10.41 | 159519 | 182809
9 | 40:37.35 | 4:58.59 | 182810 | 205218
10 | 45:36.19 | 5:11.48 | 205219 | 228591
11 | 50:47.67 | 3:31.47 | 228592 | 244463
Характеристики диапазона извлечения и сообщения об ошибках
Выбранный диапазон
Имя файла D:ЗАГРУЗКИКнига 1 - Гарри Поттер и Философский камень [10 CD]10Гарри Поттер и Философский камень - 10.wav
Пиковый уровень 70.2 %
Скорость извлечения 53.5 X
Качество диапазона 100.0 %
CRC теста D25848AD
CRC копии D25848AD
Копирование... OK
Ошибок не произошло
Конец отчёта
==== Контрольная сумма отчёта A2E7AAB8DEC48AC0B04941C83C6A0303B1E8AE0CA6FA6DEDA55497FB7C9887CD ====



   Похожие торренты   Торрент   Размер 
В этой теме нет новых непрочитанных сообщений. Роулинг Джоан Кэтлин - Гарри Поттер и Узник Азкабана (2006) FLAC

6 | 3

1.83 ГБ

В этой теме нет новых непрочитанных сообщений. Роулинг Джоан Кэтлин - Гарри Поттер и Тайная комната (2006) FLAC

25 | 3

1.53 ГБ

В этой теме нет новых непрочитанных сообщений. Роулинг Джоан Кейтлин - Гарри Поттер и философский камень (1997) (2004) mp3

30 | 3

311.86 МБ

В этой теме нет новых непрочитанных сообщений. Роулинг Джоан Кэтлин - Гарри Поттер. Книги 1-7 (2006-2011) MP3

226 | 159

3.42 ГБ

В этой теме нет новых непрочитанных сообщений. Роулинг Джоан Кэтлин - Гарри Поттер. Книги 1-7 (2006-2011) MP3

512 | 168

6.75 ГБ

В этой теме нет новых непрочитанных сообщений. Роулинг Джоан Кэтлин - Гарри Поттер. Книги 1-6 (2012) MP3

10 | 5

6.19 ГБ

В этой теме нет новых непрочитанных сообщений. Роулинг Джоан Кэтлин - Серия книг "Гарри Поттер" (1997-2007) RTF, MOBI

793 | 28

46.4 МБ




Вы не можете начинать темы
Вы не можете отвечать на сообщения
Вы не можете редактировать свои сообщения
Вы не можете удалять свои сообщения
Вы не можете добавлять вложения

Перейти:  
Для Мосгорсуда, Роскомнадзора и рекламодателей: mosgorsud-torrent[собачка]yandex.ru
 Вход
ppkBB3cker v.2 © 2008-2014 @ PPK
[ Time : 0.043s | 14 Queries | GZIP : Off ]

Торрент трекер RUTOR.IN, Не можете зайти на rutor.org? Какой новый адрес рутор? Какое зеркало рутор? Не работает rutor.org и зеркала? Тогда наш торрент специально для вас. Rutor.in неофициальное зеркало rutor. В случае если у Вас заблокирован rutor или вдруг Вы не можете на него зайти, то Вы без труда сможете скачать бесплатно и без рекламы последние новинки кино, игр, сериалов и прочего у нас, на Rutor.in. Не нужно использовать прокси, чтобы зайти на рутор, достаточно воспользоваться нашим ресурсом. Все новые фильмы, игры, сериалы, книги и музыка за 2013 и 2014 годы через торрент бесплатно. Скачивайте фильмы в хорошем качестве, игры для пк, xbox, playstation без регистрации. У нас вы найдете новые Зарубежные сериалы и Русские сериалы 2013, 2014, 2015 годов. Оставайтесь с нами, качайте любимые фильмы, игры, сериалы, книги и музыку.