img image001 image001 image001 image001 image001 image001 image001 image001 image001 image001 image001 image001 image001 image001 image001

Planets Sun Sun Sun
Статистика раздачи
Автор: Снежана | Размер: 1.83 ГБ | Добавлен: 05 авг 2013
Раздают: 6    Качают: 3
Скачать торрент
Скачать торрент
Описание торрента

СообщениеДобавлено: 05 авг 2013 


Оригинальное название: Harry Potter and the Prisoner of Azkaban
Жанр: Фэнтези, приключения
Год выпуска: 2006
Издательство: Издательский дом "Союз"
ISBN: 0226-06
Перевод: М. Д. Литвинова
По изданию: Москва, "Росмэн-Издат", 2003 г.
Конвертация: geka9999
Аудио кодек: FLAC (*.flac)
Битрейт аудио: lossless
Тип рипа: image+.cue
Исполнитель: Клюквин Александр
Тип : Аудиокнига
Источник (релизер): SPQR
Общее время звучания: 12:39:30
«Гарри Поттер» (англ. «Harry Potter») — популярная серия романов английской писательницы Дж. К. Роулинг. Каждый из романов описывает один год из жизни главного героя — мальчика-волшебника по имени Гарри Поттер. Все семь частей стали бестселлерами и переведены на множество языков, в том числе на русский. Последняя, седьмая, часть появилась в продаже 21 июля 2007. На русском языке — 13 октября 2007. Общий тираж книг составил более 325 миллионов экземпляров (на 64 языках) — больше, чем у какой-либо другой серии детских книг.

* Гарри Поттер и философский камень
* Гарри Поттер и Тайная комната
* Гарри Поттер и узник Азкабана
* Гарри Поттер и Кубок Огня
* Гарри Поттер и Орден Феникса
* Гарри Поттер и Принц-полукровка
* Гарри Поттер и Дары Смерти
* Гарри Поттер: предыстория

Книга 3 - Гарри Поттер и Узник Азкабана [10 CD]:
Описание: В течение двенадцати долгих лег печально известный узник по имени Сириус Блэк содержался в мрачной тюрьме Азкабан. Осужденный за убийство одним проклятием тринадцати человек, Блэк был признан опасным как для волшебников, так и для маглов и объявлен одним из ближайших соратников Волан -де-Морта. И вот он на свободе и на земле существует только одно место, куда он мог направиться. Стражники Азкабана не раз слышали, как во сне Блэк бормотал: "Он в Хогвартсе... Он в Хогвартсе". Так что теперь Гарри Поттер в опасности, даже в стенах своей волшебной школы, даже в окружении своих друзей.
"Это не только самый удачный бестселлер, в истории детской литературы, но и исключительное литературное произведение".

CD1
Глава1 Совиная почта треки 1-5
Глава2 Большая ошибка тетушки Мардж треки 6-10
Глава3 Автобус "Ночной рыцарь" треки 11-14
Время звучания: 01:15:05
CD2
Глава3 Автобус "Ночной рыцарь" (продолжение) трек 1
Глава4 "Дырявый котел" треки 2-7
Глава5 Дементор треки 8-15
Время звучания: 01:17:51
CD3
Глава5 Дементор (продолжение) трек 1
Глава6 Когти и чаинки треки 2-10
Глава7 Богарт в шкафу 11-14
Время звучания: 01:15:27
CD4
Глава7 Богарт в шкафу (продолжение) трек 1
Глава8 Побег полной дамы треки 2-7
Глава9 Зловещее поражение треки 8-13
Глава10 Карта мародеров трек 14
Время звучания: 01:15:38
CD5
Глава10 Карта мародеров (продолжение) треки 1-8
Глава11"Молния" треки 9-15
Время звучания: 01:17:00
CD6
Глава12 Патронус треки 1-8
Глава13 Гриффиндор против Когтеврана треки 9-14
Глава14 Месть Снегга треки 15-16
Время звучания: 01:16:54
CD7
Глава14 Месть Снегга (продолжение) треки 1-6
Глава15 Финальный матч треки 7-15
Время звучания: 01:16:17
CD8
Глава16 Пророчество профессора Трелони треки 1-7
Глава17 Крыса, кот и пес треки 8-13
Глава18 Лунатик, бродяга, сохатый и хвост треки 14-15
Время звучания: 01:17:54
CD9
Глава18 Лунатик, бродяга, сохатый и хвост (продолжение) трек 1
Глава19 Слуга лорда Волан-Де-Морта треки 2-8
Глава20 Поцелуй Дементора треки 9-11
Глава21 Секрет Гермионы треки 12-15
Время звучания: 01:19:20
CD10
Глава21 Секрет Гермионы (продолжение) треки 1-6
Глава22 Снова совиная почта треки 7-13
Время звучания: 01:08:00

Логи создания рипов:

Exact Audio Copy V1.0 beta 2 from 29. April 2011
Отчёт EAC об извлечении, выполненном 24. августа 2011, 23:41
- / Гарри Поттер и Узник Азкабана - 01
Дисковод: Generic DVD-ROM Adapter: 4 ID: 0
Режим чтения : Достоверность
Использование точного потока : Да
Отключение кэша аудио : Да
Использование указателей C2 : Нет
Коррекция смещения при чтении : 0
Способность читать области Lead-in и Lead-out : Нет
Заполнение пропущенных сэмплов тишиной : Да
Удаление блоков с тишиной в начале и конце : Нет
При вычислениях CRC использовались нулевые сэмплы : Да
Интерфейс : Встроенный Win32-интерфейс для Win NT/2000
Выходной формат : Пользовательский кодировщик
Выбранный битрейт : 128 kBit/s
Качество : Высокий
Добавление ID3-тега : Нет
Утилита сжатия : D:PORTABLE SOFTExact Audio CopyFlacflac.exe
Дополнительные параметры : -V -8 -T "Date=%year%" -T "Genre=%genre%" %source%
TOC извлечённого CD
Трек | Старт | Длительность | Начальный сектор | Конечный сектор
---------------------------------------------------------------------
1 | 0:00.00 | 5:29.09 | 0 | 24683
2 | 5:29.09 | 5:31.29 | 24684 | 49537
3 | 11:00.38 | 5:28.38 | 49538 | 74175
4 | 16:29.01 | 5:21.65 | 74176 | 98315
5 | 21:50.66 | 3:51.71 | 98316 | 115711
6 | 25:42.62 | 6:53.07 | 115712 | 146693
7 | 32:35.69 | 4:52.46 | 146694 | 168639
8 | 37:28.40 | 5:28.46 | 168640 | 193285
9 | 42:57.11 | 5:22.10 | 193286 | 217445
10 | 48:19.21 | 4:30.06 | 217446 | 237701
11 | 52:49.27 | 5:23.39 | 237702 | 261965
12 | 58:12.66 | 4:52.60 | 261966 | 283925
13 | 63:05.51 | 6:29.22 | 283926 | 313122
14 | 69:34.73 | 5:30.64 | 313123 | 337936
Характеристики диапазона извлечения и сообщения об ошибках
Выбранный диапазон
Имя файла F:МОИ РАЗДАЧИАУДИОКНИГИРоулинг Джоан Кэтлин - Гарри ПоттерКнига 3 - Гарри Поттер и Узник Азкабана [10 CD]�1Гарри Поттер и Узник Азкабана - 01.wav
Пиковый уровень 96.1 %
Скорость извлечения 49.8 X
Качество диапазона 100.0 %
CRC теста 9655081D
CRC копии 9655081D
Копирование... OK
Ошибок не произошло
Конец отчёта
==== Контрольная сумма отчёта 500297A8C4611514DB48983786236919714EE164602C844B974D996E319071B7 ====


Exact Audio Copy V1.0 beta 2 from 29. April 2011
Отчёт EAC об извлечении, выполненном 24. августа 2011, 23:52
- / Гарри Поттер и Узник Азкабана - 02
Дисковод: Generic DVD-ROM Adapter: 4 ID: 0
Режим чтения : Достоверность
Использование точного потока : Да
Отключение кэша аудио : Да
Использование указателей C2 : Нет
Коррекция смещения при чтении : 0
Способность читать области Lead-in и Lead-out : Нет
Заполнение пропущенных сэмплов тишиной : Да
Удаление блоков с тишиной в начале и конце : Нет
При вычислениях CRC использовались нулевые сэмплы : Да
Интерфейс : Встроенный Win32-интерфейс для Win NT/2000
Выходной формат : Пользовательский кодировщик
Выбранный битрейт : 128 kBit/s
Качество : Высокий
Добавление ID3-тега : Нет
Утилита сжатия : D:PORTABLE SOFTExact Audio CopyFlacflac.exe
Дополнительные параметры : -V -8 -T "Date=%year%" -T "Genre=%genre%" %source%
TOC извлечённого CD
Трек | Старт | Длительность | Начальный сектор | Конечный сектор
---------------------------------------------------------------------
1 | 0:00.00 | 5:41.23 | 0 | 25597
2 | 5:41.23 | 5:40.32 | 25598 | 51129
3 | 11:21.55 | 5:55.56 | 51130 | 77810
4 | 17:17.36 | 6:31.11 | 77811 | 107146
5 | 23:48.47 | 4:39.53 | 107147 | 128124
6 | 28:28.25 | 5:16.43 | 128125 | 151867
7 | 33:44.68 | 3:45.04 | 151868 | 168746
8 | 37:29.72 | 5:30.46 | 168747 | 193542
9 | 43:00.43 | 5:50.25 | 193543 | 219817
10 | 48:50.68 | 5:36.09 | 219818 | 245026
11 | 54:27.02 | 4:58.23 | 245027 | 267399
12 | 59:25.25 | 4:09.36 | 267400 | 286110
13 | 63:34.61 | 4:44.39 | 286111 | 307449
14 | 68:19.25 | 5:04.10 | 307450 | 330259
15 | 73:23.35 | 4:28.11 | 330260 | 350370
Характеристики диапазона извлечения и сообщения об ошибках
Выбранный диапазон
Имя файла F:МОИ РАЗДАЧИАУДИОКНИГИРоулинг Джоан Кэтлин - Гарри ПоттерКнига 3 - Гарри Поттер и Узник Азкабана [10 CD]�2Гарри Поттер и Узник Азкабана - 02.wav
Пиковый уровень 93.6 %
Скорость извлечения 54.3 X
Качество диапазона 100.0 %
CRC теста 6991F5FF
CRC копии 6991F5FF
Копирование... OK
Ошибок не произошло
Конец отчёта
==== Контрольная сумма отчёта 303EC469966EF9CF9FF31811DE759AD50AA3646193FF446FD1459FA9E377E3F9 ====


Exact Audio Copy V1.0 beta 2 from 29. April 2011
Отчёт EAC об извлечении, выполненном 25. августа 2011, 21:08
- / Гарри Поттер и Узник Азкабана - 03
Дисковод: Generic DVD-ROM Adapter: 4 ID: 0
Режим чтения : Достоверность
Использование точного потока : Да
Отключение кэша аудио : Да
Использование указателей C2 : Нет
Коррекция смещения при чтении : 0
Способность читать области Lead-in и Lead-out : Нет
Заполнение пропущенных сэмплов тишиной : Да
Удаление блоков с тишиной в начале и конце : Нет
При вычислениях CRC использовались нулевые сэмплы : Да
Интерфейс : Встроенный Win32-интерфейс для Win NT/2000
Выходной формат : Пользовательский кодировщик
Выбранный битрейт : 128 kBit/s
Качество : Высокий
Добавление ID3-тега : Нет
Утилита сжатия : D:PORTABLE SOFTExact Audio CopyFlacflac.exe
Дополнительные параметры : -V -8 -T "Date=%year%" -T "Genre=%genre%" %source%
TOC извлечённого CD
Трек | Старт | Длительность | Начальный сектор | Конечный сектор
---------------------------------------------------------------------
1 | 0:00.00 | 3:36.58 | 0 | 16257
2 | 3:36.58 | 5:23.44 | 16258 | 40526
3 | 9:00.27 | 5:09.44 | 40527 | 63745
4 | 14:09.71 | 5:25.37 | 63746 | 88157
5 | 19:35.33 | 5:07.27 | 88158 | 111209
6 | 24:42.60 | 6:14.47 | 111210 | 139306
7 | 30:57.32 | 5:25.19 | 139307 | 163700
8 | 36:22.51 | 4:09.22 | 163701 | 182397
9 | 40:31.73 | 6:06.03 | 182398 | 209850
10 | 46:38.01 | 6:03.54 | 209851 | 237129
11 | 52:41.55 | 5:02.41 | 237130 | 259820
12 | 57:44.21 | 5:43.66 | 259821 | 285611
13 | 63:28.12 | 5:20.42 | 285612 | 309653
14 | 68:48.54 | 6:38.56 | 309654 | 339559
Характеристики диапазона извлечения и сообщения об ошибках
Выбранный диапазон
Имя файла F:МОИ РАЗДАЧИАУДИОКНИГИРоулинг Джоан Кэтлин - Гарри ПоттерКнига 3 - Гарри Поттер и Узник Азкабана [10 CD]�3Гарри Поттер и Узник Азкабана - 03.wav
Пиковый уровень 88.6 %
Скорость извлечения 59.7 X
Качество диапазона 99.9 %
CRC теста 92F35F42
CRC копии 92F35F42
Копирование... OK
Ошибок не произошло
Конец отчёта
==== Контрольная сумма отчёта E07D6AB985F8EDAFFC201AF6E60A1F386AF6D2B632EAAB040BFD32AE7691A2EA ====


Exact Audio Copy V1.0 beta 2 from 29. April 2011
Отчёт EAC об извлечении, выполненном 25. августа 2011, 21:23
- / Гарри Поттер и Узник Азкабана - 04
Дисковод: Generic DVD-ROM Adapter: 4 ID: 0
Режим чтения : Достоверность
Использование точного потока : Да
Отключение кэша аудио : Да
Использование указателей C2 : Нет
Коррекция смещения при чтении : 0
Способность читать области Lead-in и Lead-out : Нет
Заполнение пропущенных сэмплов тишиной : Да
Удаление блоков с тишиной в начале и конце : Нет
При вычислениях CRC использовались нулевые сэмплы : Да
Интерфейс : Встроенный Win32-интерфейс для Win NT/2000
Выходной формат : Пользовательский кодировщик
Выбранный битрейт : 128 kBit/s
Качество : Высокий
Добавление ID3-тега : Нет
Утилита сжатия : D:PORTABLE SOFTExact Audio CopyFlacflac.exe
Дополнительные параметры : -V -8 -T "Date=%year%" -T "Genre=%genre%" %source%
TOC извлечённого CD
Трек | Старт | Длительность | Начальный сектор | Конечный сектор
---------------------------------------------------------------------
1 | 0:00.00 | 5:46.72 | 0 | 26021
2 | 5:46.72 | 5:16.58 | 26022 | 49779
3 | 11:03.55 | 5:16.36 | 49780 | 73515
4 | 16:20.16 | 5:21.33 | 73516 | 97623
5 | 21:41.49 | 5:19.37 | 97624 | 121585
6 | 27:01.11 | 5:16.37 | 121586 | 145322
7 | 32:17.48 | 6:04.54 | 145323 | 172676
8 | 38:22.27 | 4:40.64 | 172677 | 193740
9 | 43:03.16 | 5:20.28 | 193741 | 217768
10 | 48:23.44 | 6:15.70 | 217769 | 245963
11 | 54:39.39 | 5:25.16 | 245964 | 270354
12 | 60:04.55 | 5:17.54 | 270355 | 294183
13 | 65:22.34 | 4:55.46 | 294184 | 316354
14 | 70:18.05 | 5:20.03 | 316355 | 340357
Характеристики диапазона извлечения и сообщения об ошибках
Выбранный диапазон
Имя файла F:МОИ РАЗДАЧИАУДИОКНИГИРоулинг Джоан Кэтлин - Гарри ПоттерКнига 3 - Гарри Поттер и Узник Азкабана [10 CD]�4Гарри Поттер и Узник Азкабана - 04.wav
Пиковый уровень 95.3 %
Скорость извлечения 57.2 X
Качество диапазона 99.9 %
CRC теста 45760868
CRC копии 45760868
Копирование... OK
Ошибок не произошло
Конец отчёта
==== Контрольная сумма отчёта 589507FA4F165FB48D3167E1EB1DF7906DE182E1967CBCFD023724B7BBE496B0 ====


Exact Audio Copy V1.0 beta 2 from 29. April 2011
Отчёт EAC об извлечении, выполненном 25. августа 2011, 21:45
- / Гарри Поттер и Узник Азкабана - 05
Дисковод: Generic DVD-ROM Adapter: 4 ID: 0
Режим чтения : Достоверность
Использование точного потока : Да
Отключение кэша аудио : Да
Использование указателей C2 : Нет
Коррекция смещения при чтении : 0
Способность читать области Lead-in и Lead-out : Нет
Заполнение пропущенных сэмплов тишиной : Да
Удаление блоков с тишиной в начале и конце : Нет
При вычислениях CRC использовались нулевые сэмплы : Да
Интерфейс : Встроенный Win32-интерфейс для Win NT/2000
Выходной формат : Пользовательский кодировщик
Выбранный битрейт : 128 kBit/s
Качество : Высокий
Добавление ID3-тега : Нет
Утилита сжатия : D:PORTABLE SOFTExact Audio CopyFlacflac.exe
Дополнительные параметры : -V -8 -T "Date=%year%" -T "Genre=%genre%" %source%
TOC извлечённого CD
Трек | Старт | Длительность | Начальный сектор | Конечный сектор
---------------------------------------------------------------------
1 | 0:00.00 | 4:44.26 | 0 | 21325
2 | 4:44.26 | 5:29.69 | 21326 | 46069
3 | 10:14.20 | 5:00.30 | 46070 | 68599
4 | 15:14.50 | 5:29.14 | 68600 | 93288
5 | 20:43.64 | 5:06.59 | 93289 | 116297
6 | 25:50.48 | 5:03.28 | 116298 | 139050
7 | 30:54.01 | 4:37.43 | 139051 | 159868
8 | 35:31.44 | 4:36.33 | 159869 | 180601
9 | 40:08.02 | 5:57.39 | 180602 | 207415
10 | 46:05.41 | 5:42.39 | 207416 | 233104
11 | 51:48.05 | 6:04.61 | 233105 | 260465
12 | 57:52.66 | 5:29.04 | 260466 | 285144
13 | 63:21.70 | 5:21.68 | 285145 | 309287
14 | 68:43.63 | 5:20.22 | 309288 | 333309
15 | 74:04.10 | 2:56.07 | 333310 | 346516
Характеристики диапазона извлечения и сообщения об ошибках
Выбранный диапазон
Имя файла F:МОИ РАЗДАЧИАУДИОКНИГИРоулинг Джоан Кэтлин - Гарри ПоттерКнига 3 - Гарри Поттер и Узник Азкабана [10 CD]�5Гарри Поттер и Узник Азкабана - 05.wav
Пиковый уровень 93.6 %
Скорость извлечения 58.7 X
Качество диапазона 100.0 %
CRC теста 55E9F9BB
CRC копии 55E9F9BB
Копирование... OK
Ошибок не произошло
Конец отчёта
==== Контрольная сумма отчёта 62DDFD200E66B13327A738A5FD5318D3315F2033D05A9220A79E75A3EF552DA9 ====


Exact Audio Copy V1.0 beta 2 from 29. April 2011
Отчёт EAC об извлечении, выполненном 25. августа 2011, 22:09
- / Гарри Поттер и Узник Азкабана - 06
Дисковод: Generic DVD-ROM Adapter: 4 ID: 0
Режим чтения : Достоверность
Использование точного потока : Да
Отключение кэша аудио : Да
Использование указателей C2 : Нет
Коррекция смещения при чтении : 0
Способность читать области Lead-in и Lead-out : Нет
Заполнение пропущенных сэмплов тишиной : Да
Удаление блоков с тишиной в начале и конце : Нет
При вычислениях CRC использовались нулевые сэмплы : Да
Интерфейс : Встроенный Win32-интерфейс для Win NT/2000
Выходной формат : Пользовательский кодировщик
Выбранный битрейт : 128 kBit/s
Качество : Высокий
Добавление ID3-тега : Нет
Утилита сжатия : D:PORTABLE SOFTExact Audio CopyFlacflac.exe
Дополнительные параметры : -V -8 -T "Date=%year%" -T "Genre=%genre%" %source%
TOC извлечённого CD
Трек | Старт | Длительность | Начальный сектор | Конечный сектор
---------------------------------------------------------------------
1 | 0:00.00 | 5:08.31 | 0 | 23130
2 | 5:08.31 | 5:05.05 | 23131 | 46010
3 | 10:13.36 | 5:37.72 | 46011 | 71357
4 | 15:51.33 | 4:33.56 | 71358 | 91888
5 | 20:25.14 | 4:17.56 | 91889 | 111219
6 | 24:42.70 | 5:26.17 | 111220 | 135686
7 | 30:09.12 | 4:11.53 | 135687 | 154564
8 | 34:20.65 | 3:25.32 | 154565 | 169971
9 | 37:46.22 | 4:09.18 | 169972 | 188664
10 | 41:55.40 | 4:23.20 | 188665 | 208409
11 | 46:18.60 | 6:45.32 | 208410 | 238816
12 | 53:04.17 | 5:56.64 | 238817 | 265580
13 | 59:01.06 | 4:13.71 | 265581 | 284626
14 | 63:15.02 | 3:40.63 | 284627 | 301189
15 | 66:55.65 | 5:12.74 | 301190 | 324663
16 | 72:08.64 | 4:45.69 | 324664 | 346107
Характеристики диапазона извлечения и сообщения об ошибках
Выбранный диапазон
Имя файла F:МОИ РАЗДАЧИАУДИОКНИГИРоулинг Джоан Кэтлин - Гарри ПоттерКнига 3 - Гарри Поттер и Узник Азкабана [10 CD]�6Гарри Поттер и Узник Азкабана - 06.wav
Пиковый уровень 95.6 %
Скорость извлечения 41.1 X
Качество диапазона 100.0 %
CRC теста F404EE5D
CRC копии F404EE5D
Копирование... OK
Ошибок не произошло
Конец отчёта
==== Контрольная сумма отчёта 2FEA1A47B3991BFB1C579A108A92196D088BAEAC2DCD0EC73021C3BDBE489170 ====


Exact Audio Copy V1.0 beta 2 from 29. April 2011
Отчёт EAC об извлечении, выполненном 25. августа 2011, 22:21
- / Гарри Поттер и Узник Азкабана - 07
Дисковод: Generic DVD-ROM Adapter: 4 ID: 0
Режим чтения : Достоверность
Использование точного потока : Да
Отключение кэша аудио : Да
Использование указателей C2 : Нет
Коррекция смещения при чтении : 0
Способность читать области Lead-in и Lead-out : Нет
Заполнение пропущенных сэмплов тишиной : Да
Удаление блоков с тишиной в начале и конце : Нет
При вычислениях CRC использовались нулевые сэмплы : Да
Интерфейс : Встроенный Win32-интерфейс для Win NT/2000
Выходной формат : Пользовательский кодировщик
Выбранный битрейт : 128 kBit/s
Качество : Высокий
Добавление ID3-тега : Нет
Утилита сжатия : D:PORTABLE SOFTExact Audio CopyFlacflac.exe
Дополнительные параметры : -V -8 -T "Date=%year%" -T "Genre=%genre%" %source%
TOC извлечённого CD
Трек | Старт | Длительность | Начальный сектор | Конечный сектор
---------------------------------------------------------------------
1 | 0:00.00 | 6:13.02 | 0 | 27976
2 | 6:13.02 | 4:58.37 | 27977 | 50363
3 | 11:11.39 | 5:29.38 | 50364 | 75076
4 | 16:41.02 | 4:49.56 | 75077 | 96807
5 | 21:30.58 | 5:38.06 | 96808 | 122163
6 | 27:08.64 | 4:33.61 | 122164 | 142699
7 | 31:42.50 | 5:15.29 | 142700 | 166353
8 | 36:58.04 | 5:24.25 | 166354 | 190678
9 | 42:22.29 | 4:56.39 | 190679 | 212917
10 | 47:18.68 | 4:15.51 | 212918 | 232093
11 | 51:34.44 | 5:12.68 | 232094 | 255561
12 | 56:47.37 | 5:20.30 | 255562 | 279591
13 | 62:07.67 | 4:59.66 | 279592 | 302082
14 | 67:07.58 | 5:02.20 | 302083 | 324752
15 | 72:10.03 | 4:07.56 | 324753 | 343333
Характеристики диапазона извлечения и сообщения об ошибках
Выбранный диапазон
Имя файла F:МОИ РАЗДАЧИАУДИОКНИГИРоулинг Джоан Кэтлин - Гарри ПоттерКнига 3 - Гарри Поттер и Узник Азкабана [10 CD]�7Гарри Поттер и Узник Азкабана - 07.wav
Пиковый уровень 97.3 %
Скорость извлечения 54.8 X
Качество диапазона 100.0 %
CRC теста 6615BEA0
CRC копии 6615BEA0
Копирование... OK
Ошибок не произошло
Конец отчёта
==== Контрольная сумма отчёта F4D3DEC7149E500E97D355132A5CD5D091216545C8DC3E36BDF1D19CB859B8B3 ====


Exact Audio Copy V1.0 beta 2 from 29. April 2011
Отчёт EAC об извлечении, выполненном 25. августа 2011, 22:29
- / Гарри Поттер и Узник Азкабана - 08
Дисковод: Generic DVD-ROM Adapter: 4 ID: 0
Режим чтения : Достоверность
Использование точного потока : Да
Отключение кэша аудио : Да
Использование указателей C2 : Нет
Коррекция смещения при чтении : 0
Способность читать области Lead-in и Lead-out : Нет
Заполнение пропущенных сэмплов тишиной : Да
Удаление блоков с тишиной в начале и конце : Нет
При вычислениях CRC использовались нулевые сэмплы : Да
Интерфейс : Встроенный Win32-интерфейс для Win NT/2000
Выходной формат : Пользовательский кодировщик
Выбранный битрейт : 128 kBit/s
Качество : Высокий
Добавление ID3-тега : Нет
Утилита сжатия : D:PORTABLE SOFTExact Audio CopyFlacflac.exe
Дополнительные параметры : -V -8 -T "Date=%year%" -T "Genre=%genre%" %source%
TOC извлечённого CD
Трек | Старт | Длительность | Начальный сектор | Конечный сектор
---------------------------------------------------------------------
1 | 0:00.00 | 5:18.28 | 0 | 23877
2 | 5:18.28 | 5:52.24 | 23878 | 50301
3 | 11:10.52 | 5:28.37 | 50302 | 74938
4 | 16:39.14 | 5:02.37 | 74939 | 97625
5 | 21:41.51 | 4:39.51 | 97626 | 118601
6 | 26:21.27 | 5:11.19 | 118602 | 141945
7 | 31:32.46 | 4:04.54 | 141946 | 160299
8 | 35:37.25 | 4:53.50 | 160300 | 182324
9 | 40:31.00 | 5:05.65 | 182325 | 205264
10 | 45:36.65 | 5:22.60 | 205265 | 229474
11 | 50:59.50 | 5:35.49 | 229475 | 254648
12 | 56:35.24 | 5:28.09 | 254649 | 279257
13 | 62:03.33 | 4:33.59 | 279258 | 299791
14 | 66:37.17 | 5:26.06 | 299792 | 324247
15 | 72:03.23 | 5:51.00 | 324248 | 350572
Характеристики диапазона извлечения и сообщения об ошибках
Выбранный диапазон
Имя файла F:МОИ РАЗДАЧИАУДИОКНИГИРоулинг Джоан Кэтлин - Гарри ПоттерКнига 3 - Гарри Поттер и Узник Азкабана [10 CD]�8Гарри Поттер и Узник Азкабана - 08.wav
Пиковый уровень 88.7 %
Скорость извлечения 59.4 X
Качество диапазона 100.0 %
CRC теста 8B2C4F46
CRC копии 8B2C4F46
Копирование... OK
Ошибок не произошло
Конец отчёта
==== Контрольная сумма отчёта CCC211E62084EDAD4C60957D40F52A4D4CFEDFF3AE8C9F2642D4BB8F899E7C0D ====


Exact Audio Copy V1.0 beta 2 from 29. April 2011
Отчёт EAC об извлечении, выполненном 25. августа 2011, 22:39
- / Гарри Поттер и Узник Азкабана - 09
Дисковод: Generic DVD-ROM Adapter: 4 ID: 0
Режим чтения : Достоверность
Использование точного потока : Да
Отключение кэша аудио : Да
Использование указателей C2 : Нет
Коррекция смещения при чтении : 0
Способность читать области Lead-in и Lead-out : Нет
Заполнение пропущенных сэмплов тишиной : Да
Удаление блоков с тишиной в начале и конце : Нет
При вычислениях CRC использовались нулевые сэмплы : Да
Интерфейс : Встроенный Win32-интерфейс для Win NT/2000
Выходной формат : Пользовательский кодировщик
Выбранный битрейт : 128 kBit/s
Качество : Высокий
Добавление ID3-тега : Нет
Утилита сжатия : D:PORTABLE SOFTExact Audio CopyFlacflac.exe
Дополнительные параметры : -V -8 -T "Date=%year%" -T "Genre=%genre%" %source%
TOC извлечённого CD
Трек | Старт | Длительность | Начальный сектор | Конечный сектор
---------------------------------------------------------------------
1 | 0:00.00 | 5:18.54 | 0 | 23903
2 | 5:18.54 | 4:49.11 | 23904 | 45589
3 | 10:07.65 | 6:11.69 | 45590 | 73483
4 | 16:19.59 | 5:39.20 | 73484 | 98928
5 | 21:59.04 | 5:12.67 | 98929 | 122395
6 | 27:11.71 | 5:54.29 | 122396 | 148974
7 | 33:06.25 | 5:11.36 | 148975 | 172335
8 | 38:17.61 | 4:53.30 | 172336 | 194340
9 | 43:11.16 | 5:42.11 | 194341 | 220001
10 | 48:53.27 | 5:03.18 | 220002 | 242744
11 | 53:56.45 | 4:14.73 | 242745 | 261867
12 | 58:11.43 | 5:04.19 | 261868 | 284686
13 | 63:15.62 | 5:11.09 | 284687 | 308020
14 | 68:26.71 | 5:39.25 | 308021 | 333470
15 | 74:06.21 | 5:14.09 | 333471 | 357029
Характеристики диапазона извлечения и сообщения об ошибках
Выбранный диапазон
Имя файла F:МОИ РАЗДАЧИАУДИОКНИГИРоулинг Джоан Кэтлин - Гарри ПоттерКнига 3 - Гарри Поттер и Узник Азкабана [10 CD]�9Гарри Поттер и Узник Азкабана - 09.wav
Пиковый уровень 97.9 %
Скорость извлечения 59.7 X
Качество диапазона 100.0 %
CRC теста 780EC2FA
CRC копии 780EC2FA
Копирование... OK
Ошибок не произошло
Конец отчёта
==== Контрольная сумма отчёта 1CC37E6C08F101B7305BD6693B8BC227388E92E296D1214254D49CFB022BB4FE ====


Exact Audio Copy V1.0 beta 2 from 29. April 2011
Отчёт EAC об извлечении, выполненном 25. августа 2011, 22:49
- / Гарри Поттер и Узник Азкабана - 10
Дисковод: Generic DVD-ROM Adapter: 4 ID: 0
Режим чтения : Достоверность
Использование точного потока : Да
Отключение кэша аудио : Да
Использование указателей C2 : Нет
Коррекция смещения при чтении : 0
Способность читать области Lead-in и Lead-out : Нет
Заполнение пропущенных сэмплов тишиной : Да
Удаление блоков с тишиной в начале и конце : Нет
При вычислениях CRC использовались нулевые сэмплы : Да
Интерфейс : Встроенный Win32-интерфейс для Win NT/2000
Выходной формат : Пользовательский кодировщик
Выбранный битрейт : 128 kBit/s
Качество : Высокий
Добавление ID3-тега : Нет
Утилита сжатия : D:PORTABLE SOFTExact Audio CopyFlacflac.exe
Дополнительные параметры : -V -8 -T "Date=%year%" -T "Genre=%genre%" %source%
TOC извлечённого CD
Трек | Старт | Длительность | Начальный сектор | Конечный сектор
---------------------------------------------------------------------
1 | 0:00.00 | 5:12.71 | 0 | 23470
2 | 5:12.71 | 4:59.13 | 23471 | 45908
3 | 10:12.09 | 5:08.52 | 45909 | 69060
4 | 15:20.61 | 5:50.44 | 69061 | 95354
5 | 21:11.30 | 6:05.21 | 95355 | 122750
6 | 27:16.51 | 5:27.53 | 122751 | 147328
7 | 32:44.29 | 5:40.31 | 147329 | 172859
8 | 38:24.60 | 4:54.58 | 172860 | 194967
9 | 43:19.43 | 5:10.51 | 194968 | 218268
10 | 48:30.19 | 5:28.40 | 218269 | 242908
11 | 53:58.59 | 5:24.07 | 242909 | 267215
12 | 59:22.66 | 4:39.33 | 267216 | 288173
13 | 64:02.24 | 3:58.00 | 288174 | 306023
Характеристики диапазона извлечения и сообщения об ошибках
Выбранный диапазон
Имя файла F:МОИ РАЗДАЧИАУДИОКНИГИРоулинг Джоан Кэтлин - Гарри ПоттерКнига 3 - Гарри Поттер и Узник Азкабана [10 CD]10Гарри Поттер и Узник Азкабана - 10.wav
Пиковый уровень 97.3 %
Скорость извлечения 49.0 X
Качество диапазона 100.0 %
CRC теста 9FC7507B
CRC копии 9FC7507B
Копирование... OK
Ошибок не произошло
Конец отчёта
==== Контрольная сумма отчёта CA0C6B785BF169AC9E01D304AACFFCF0DFDB22F1EFD9464B19C06E1022DE049B ====



   Похожие торренты   Торрент   Размер 
В этой теме нет новых непрочитанных сообщений. Роулинг Джоан Кейтлин - Гарри Поттер и Узник Азкабана (2001) MP3

2 | 4

281.83 МБ

В этой теме нет новых непрочитанных сообщений. Роулинг Джоан Кэтлин - Гарри Поттер и Философский камень (2006) FLAC

23 | 4

1.58 ГБ

В этой теме нет новых непрочитанных сообщений. Роулинг Джоан Кэтлин - Гарри Поттер и Тайная комната (2006) FLAC

25 | 3

1.53 ГБ

В этой теме нет новых непрочитанных сообщений. Роулинг Джоан Кэтлин - Гарри Поттер. Книги 1-7 (2006-2011) MP3

512 | 168

6.75 ГБ

В этой теме нет новых непрочитанных сообщений. Роулинг Джоан Кэтлин - Гарри Поттер. Книги 1-7 (2006-2011) MP3

226 | 159

3.42 ГБ

В этой теме нет новых непрочитанных сообщений. Роулинг Джоан Кэтлин - Гарри Поттер. Книги 1-6 (2012) MP3

10 | 5

6.19 ГБ

В этой теме нет новых непрочитанных сообщений. Роулинг Джоан Кэтлин - Серия книг "Гарри Поттер" (1997-2007) RTF, MOBI

793 | 28

46.4 МБ




Вы не можете начинать темы
Вы не можете отвечать на сообщения
Вы не можете редактировать свои сообщения
Вы не можете удалять свои сообщения
Вы не можете добавлять вложения

Перейти:  
Для Мосгорсуда, Роскомнадзора и рекламодателей: mosgorsud-torrent[собачка]yandex.ru
 Вход
ppkBB3cker v.2 © 2008-2014 @ PPK
[ Time : 0.039s | 15 Queries | GZIP : Off ]

Торрент трекер RUTOR.IN, Не можете зайти на rutor.org? Какой новый адрес рутор? Какое зеркало рутор? Не работает rutor.org и зеркала? Тогда наш торрент специально для вас. Rutor.in неофициальное зеркало rutor. В случае если у Вас заблокирован rutor или вдруг Вы не можете на него зайти, то Вы без труда сможете скачать бесплатно и без рекламы последние новинки кино, игр, сериалов и прочего у нас, на Rutor.in. Не нужно использовать прокси, чтобы зайти на рутор, достаточно воспользоваться нашим ресурсом. Все новые фильмы, игры, сериалы, книги и музыка за 2013 и 2014 годы через торрент бесплатно. Скачивайте фильмы в хорошем качестве, игры для пк, xbox, playstation без регистрации. У нас вы найдете новые Зарубежные сериалы и Русские сериалы 2013, 2014, 2015 годов. Оставайтесь с нами, качайте любимые фильмы, игры, сериалы, книги и музыку.