img image001 image001 image001 image001 image001 image001 image001 image001 image001 image001 image001 image001 image001 image001 image001

Planets Sun Sun Sun
Статистика раздачи
Автор: Снежана | Размер: 327.08 МБ | Добавлен: 05 авг 2013
Раздают: 60    Качают: 4
Скачать торрент
Скачать торрент
Описание торрента

СообщениеДобавлено: 05 авг 2013 


Жанр: Сказка
Год выпуска: 2007 г.
Год записи: 1965 г.
Издательство: Мелодия
Серия: Мелодия - детям
Номер по каталогу: MEL CD 50 01279
Релиз: ley-barmaley
Аудио кодек: WAVPack
Тип рипа: image +.cue +.log
Битрейт: lossless
Тип : Аудиоспектакль
Общее время звучания: 01:11:49
Наличие сканов в содержимом раздачи: есть
Аннотация:
Ураган унёс домик Элли очень далеко от родного Канзаса. Вернуть её домой по силам только могучему правителю Изумрудного города - Гудвину. Элли со своим пёсиком Тотошкой отправляются в полное опасностей путешествие по Дороге из жёлтого кирпича. У неё появляется много новых друзей - соломенный Страшила, Железный дровосек и Трусливый лев. У каждого из них есть своё заветное желание, и они надеются, что Гудвин исполнит их...
Литературно-музыкальная композиция по мотивам сказки Ф. Баума и книги А. Волкова
Действующие лица и исполнители:
Элли - Ева Синельникова
Страшила - Виталий Доронин
Железный Дровосек - Анатолий Папанов
Трусливый Лев - Ростислав Плятт
Тотошка - Ирина Мазинг
Бастинда, Гудвин - Георгий Вицин
Виллина - Мария Бабанова
Вожак обезьян - Евгений Началов
Страж, Тигр - Николай Алексахин
Мама - Алла Костюкова
Папа - Евгений Фридман
Музыка - Геннадий Гладков

Exact Audio Copy V1.0 beta 3 from 29. August 2011
Отчёт EAC об извлечении, выполненном 4. ноября 2012, 15:10
Анатолий Папанов, Георгий Вицин, Ростислав Плятт и другие / Волшебник Изумрудного города (Мелодия, MEL CD 50 01279)
Дисковод: ASUS DRW-1814BL Adapter: 0 ID: 0
Режим чтения : Достоверность
Использование точного потока : Да
Отключение кэша аудио : Да
Использование указателей C2 : Нет
Коррекция смещения при чтении : 6
Способность читать области Lead-in и Lead-out : Нет
Заполнение пропущенных сэмплов тишиной : Да
Удаление блоков с тишиной в начале и конце : Нет
При вычислениях CRC использовались нулевые сэмплы : Да
Интерфейс : Встроенный Win32-интерфейс для Win NT/2000
Выходной формат : Внутренние WAV-операции
Формат сэмплов : 44.100 Гц; 16 бит; стерео
TOC извлечённого CD
Трек | Старт | Длительность | Начальный сектор | Конечный сектор
---------------------------------------------------------------------
1 | 0:00.00 | 3:36.54 | 0 | 16253
2 | 3:36.54 | 5:10.18 | 16254 | 39521
3 | 8:46.72 | 4:04.62 | 39522 | 57883
4 | 12:51.59 | 5:41.19 | 57884 | 83477
5 | 18:33.03 | 4:52.08 | 83478 | 105385
6 | 23:25.11 | 3:00.15 | 105386 | 118900
7 | 26:25.26 | 5:46.38 | 118901 | 144888
8 | 32:11.64 | 4:50.43 | 144889 | 166681
9 | 37:02.32 | 15:20.64 | 166682 | 235745
10 | 52:23.21 | 5:06.20 | 235746 | 258715
11 | 57:29.41 | 4:33.05 | 258716 | 279195
12 | 62:02.46 | 9:46.04 | 279196 | 323149
Характеристики диапазона извлечения и сообщения об ошибках
Выбранный диапазон
Имя файла G:ley-barmaleyмузыкальные сказки на сайте lossless-galaxy.ruВолшебник Изумрудного города (Мелодия, MEL CD 50 01279).wav
Пиковый уровень 100.0 %
Скорость извлечения 4.7 X
Качество диапазона 100.0 %
CRC теста 529CB01B
CRC копии 529CB01B
Копирование... OK
Ошибок не произошло
AccurateRip: сводка
Трек 1 : извлечено точно (доверие 1) [1BB293A5] (AR v1)
Трек 2 : извлечено точно (доверие 1) [1B03F4C7] (AR v1)
Трек 3 : извлечено точно (доверие 1) [BB20E39C] (AR v1)
Трек 4 : извлечено точно (доверие 1) [0B8ACAB5] (AR v1)
Трек 5 : извлечено точно (доверие 1) [CA77689E] (AR v1)
Трек 6 : извлечено точно (доверие 1) [DE76A25C] (AR v1)
Трек 7 : извлечено точно (доверие 1) [EB2F1A46] (AR v1)
Трек 8 : извлечено точно (доверие 1) [09638523] (AR v1)
Трек 9 : извлечено точно (доверие 1) [DAA71EBE] (AR v1)
Трек 10 : извлечено точно (доверие 1) [54611446] (AR v1)
Трек 11 : извлечено точно (доверие 1) [4C5F6808] (AR v1)
Трек 12 : извлечено точно (доверие 1) [59DE45F3] (AR v1)
Все треки извлечены точно
Конец отчёта
---- CUETools DB Plugin V2.1.3
[CTDB TOCID: BTAYtFVlg6R9Jlrp2nzgy0CClhI-] found, Submit result: BTAYtFVlg6R9Jlrp2nzgy0CClhI- has been confirmed
[a8556fdb] (1/1) Accurately ripped
==== Контрольная сумма отчёта 0FB8EC4172771EB1E8EA47C636710CFF0129235286906D13FF678ADB411BA9B2 ====


-----------------------
DON'T MODIFY THIS FILE
-----------------------
PERFORMER: auCDtect Task Manager, ver. 1.5.1RC3 build 1.5.1.4
Copyright (c) 2008-2010 y-soft. All rights reserved
http://y-soft.org
ANALYZER: auCDtect: CD records authenticity detector, version 0.8.2
Copyright (c) 2004 Oleg Berngardt. All rights reserved.
Copyright (c) 2004 Alexander Djourik. All rights reserved.
FILE: Волшебник Изумрудного города (Мелодия, MEL CD 50 01279).wv
Size: 336183102 Hash: E00DC59B28C02E06B676368A9517AA5C Accuracy: -m0
Conclusion: CDDA 85%
Signature: DAB562BFCE621B990FCDF3C5F0A30FFF28DC2F4F
FILE: Волшебник Изумрудного города (Мелодия, MEL CD 50 01279).wav
Size: 760048844 Hash: E00DC59B28C02E06B676368A9517AA5C Accuracy: -m0
Conclusion: CDDA 85%
Signature: F8DA806FCFCCFB35C3C550A0E5B1EC39DFE62862



REM GENRE "Литературно-музыкальная композиция"
REM DATE 2007
REM DISCID 9A10D40C
REM COMMENT "ExactAudioCopy v1.0b3"
PERFORMER "Анатолий Папанов, Георгий Вицин, Ростислав Плятт и другие"
TITLE "Волшебник Изумрудного города (Мелодия, MEL CD 50 01279)"
FILE "Волшебник Изумрудного города (Мелодия, MEL CD 50 01279).wv" WAVE
TRACK 01 AUDIO
TITLE "Ураган"
PERFORMER "Анатолий Папанов, Георгий Вицин, Ростислав Плятт, Ева Синельникова, Ирина Мазинг, Мария Бабанова, Виталий Доронин, Алла Костюкова, Евгений Началов, Евгений Фридман, Николай Алексахин"
FLAGS DCP
INDEX 01 00:00:00
TRACK 02 AUDIO
TITLE "Элли в удивительной стране жевунов"
PERFORMER "Анатолий Папанов, Георгий Вицин, Ростислав Плятт, Ева Синельникова, Ирина Мазинг, Мария Бабанова, Виталий Доронин, Алла Костюкова, Евгений Началов, Евгений Фридман, Николай Алексахин"
FLAGS DCP
INDEX 01 03:36:54
TRACK 03 AUDIO
TITLE "Страшила"
PERFORMER "Анатолий Папанов, Георгий Вицин, Ростислав Плятт, Ева Синельникова, Ирина Мазинг, Мария Бабанова, Виталий Доронин, Алла Костюкова, Евгений Началов, Евгений Фридман, Николай Алексахин"
FLAGS DCP
INDEX 01 08:46:72
TRACK 04 AUDIO
TITLE "Спасение железного дровосека"
PERFORMER "Анатолий Папанов, Георгий Вицин, Ростислав Плятт, Ева Синельникова, Ирина Мазинг, Мария Бабанова, Виталий Доронин, Алла Костюкова, Евгений Началов, Евгений Фридман, Николай Алексахин"
FLAGS DCP
INDEX 01 12:51:59
TRACK 05 AUDIO
TITLE "Встреча с трусливым львом"
PERFORMER "Анатолий Папанов, Георгий Вицин, Ростислав Плятт, Ева Синельникова, Ирина Мазинг, Мария Бабанова, Виталий Доронин, Алла Костюкова, Евгений Началов, Евгений Фридман, Николай Алексахин"
FLAGS DCP
INDEX 01 18:33:03
TRACK 06 AUDIO
TITLE "Коварное маковое поле"
PERFORMER "Анатолий Папанов, Георгий Вицин, Ростислав Плятт, Ева Синельникова, Ирина Мазинг, Мария Бабанова, Виталий Доронин, Алла Костюкова, Евгений Началов, Евгений Фридман, Николай Алексахин"
FLAGS DCP
INDEX 01 23:25:11
TRACK 07 AUDIO
TITLE "Изумрудный город"
PERFORMER "Анатолий Папанов, Георгий Вицин, Ростислав Плятт, Ева Синельникова, Ирина Мазинг, Мария Бабанова, Виталий Доронин, Алла Костюкова, Евгений Началов, Евгений Фридман, Николай Алексахин"
FLAGS DCP
INDEX 01 26:25:26
TRACK 08 AUDIO
TITLE "Удивительные превращения"
PERFORMER "Анатолий Папанов, Георгий Вицин, Ростислав Плятт, Ева Синельникова, Ирина Мазинг, Мария Бабанова, Виталий Доронин, Алла Костюкова, Евгений Началов, Евгений Фридман, Николай Алексахин"
FLAGS DCP
INDEX 01 32:11:64
TRACK 09 AUDIO
TITLE "Победная схватка с Бастиндой"
PERFORMER "Анатолий Папанов, Георгий Вицин, Ростислав Плятт, Ева Синельникова, Ирина Мазинг, Мария Бабанова, Виталий Доронин, Алла Костюкова, Евгений Началов, Евгений Фридман, Николай Алексахин"
FLAGS DCP
INDEX 01 37:02:32
TRACK 10 AUDIO
TITLE "Возвращение в Изумрудный город"
PERFORMER "Анатолий Папанов, Георгий Вицин, Ростислав Плятт, Ева Синельникова, Ирина Мазинг, Мария Бабанова, Виталий Доронин, Алла Костюкова, Евгений Началов, Евгений Фридман, Николай Алексахин"
FLAGS DCP
INDEX 01 52:23:21
TRACK 11 AUDIO
TITLE "Разоблачение Великого и Ужасного"
PERFORMER "Анатолий Папанов, Георгий Вицин, Ростислав Плятт, Ева Синельникова, Ирина Мазинг, Мария Бабанова, Виталий Доронин, Алла Костюкова, Евгений Началов, Евгений Фридман, Николай Алексахин"
FLAGS DCP
INDEX 01 57:29:41
TRACK 12 AUDIO
TITLE "Исполнение желаний"
PERFORMER "Анатолий Папанов, Георгий Вицин, Ростислав Плятт, Ева Синельникова, Ирина Мазинг, Мария Бабанова, Виталий Доронин, Алла Костюкова, Евгений Началов, Евгений Фридман, Николай Алексахин"
FLAGS DCP
INDEX 01 62:02:46



   Похожие торренты   Торрент   Размер 
В этой теме нет новых непрочитанных сообщений. Александр Волков - Волшебник Изумрудного города. Все 6 сказок. (2011) MP3

74 | 8

2 ГБ

В этой теме нет новых непрочитанных сообщений. А. Волков - Волшебник изумрудного города (2006-2007) МР3

51 | 26

2.71 ГБ

В этой теме нет новых непрочитанных сообщений. Волков А. - Волшебник Изумрудного города (1963-1984) DJVU

41 | 9

70.01 МБ

В этой теме нет новых непрочитанных сообщений. Волшебник Изумрудного Города: География с Элли (2007) PC

18 | 2

474.11 МБ

В этой теме нет новых непрочитанных сообщений. Мелодия - Волшебник Изумрудного Города (1985) MP3

86 | 2

164.43 МБ

В этой теме нет новых непрочитанных сообщений. Волшебник Изумрудного города (1994) DVDRip

217 | 5

895.83 МБ

В этой теме нет новых непрочитанных сообщений. Волшебник изумрудного города: Загадки Гудвина (2008) MAC

1 | 3

218.61 МБ




Вы не можете начинать темы
Вы не можете отвечать на сообщения
Вы не можете редактировать свои сообщения
Вы не можете удалять свои сообщения
Вы не можете добавлять вложения

Перейти:  
Для Мосгорсуда, Роскомнадзора и рекламодателей: mosgorsud-torrent[собачка]yandex.ru
 Вход
ppkBB3cker v.2 © 2008-2014 @ PPK
[ Time : 4.743s | 16 Queries | GZIP : Off ]

Торрент трекер RUTOR.IN, Не можете зайти на rutor.org? Какой новый адрес рутор? Какое зеркало рутор? Не работает rutor.org и зеркала? Тогда наш торрент специально для вас. Rutor.in неофициальное зеркало rutor. В случае если у Вас заблокирован rutor или вдруг Вы не можете на него зайти, то Вы без труда сможете скачать бесплатно и без рекламы последние новинки кино, игр, сериалов и прочего у нас, на Rutor.in. Не нужно использовать прокси, чтобы зайти на рутор, достаточно воспользоваться нашим ресурсом. Все новые фильмы, игры, сериалы, книги и музыка за 2013 и 2014 годы через торрент бесплатно. Скачивайте фильмы в хорошем качестве, игры для пк, xbox, playstation без регистрации. У нас вы найдете новые Зарубежные сериалы и Русские сериалы 2013, 2014, 2015 годов. Оставайтесь с нами, качайте любимые фильмы, игры, сериалы, книги и музыку.