img image001 image001 image001 image001 image001 image001 image001 image001 image001 image001 image001 image001 image001 image001 image001

Planets Sun Sun Sun
Статистика раздачи
Автор: Снежана | Размер: 1.22 ГБ | Добавлен: 05 авг 2013
Раздают: 594    Качают: 207
Скачать торрент
Скачать торрент
Описание торрента

СообщениеДобавлено: 05 авг 2013 

#77

Zumba Fitness - Cardio Party (Танцы, Аэробика. Кардиотренировка)

Продолжительность: 48 минут
Язык: Английский (К сожалению да, но наши еще не сподобились на такое, но там и так все понятно - смотри и повторяй)
Жанр: Танцы, Аэробика, Спорт, фитнес, обучающие видео
Описание:
"Зумба", новый фитнес-танец
"Зумба" - это комбинация танца и аэробики, которая помогает ощутить себя привлекательным. В этом танце есть движения из Merengue, Salsa, Samba и Flamenco. Много движений бедрами, много веселья, много сожженных калорий".
Очень заводные Zumba-танцы. Идеальны для совершенстовования фигуры, "сброса" лишнего веса; учат красиво двигаться.

Merengue March
Que Te Mueve
Diamond Step
Booty Circle
Cuban Salsa
Salsa Back
Salsa Travel
Sabor Step
Basic Cumbia
Cumbia Candle Step
Cumbia Funk
Basic Reggaeton
Destroza
Reggaeton Stomp
Reggaeton Bounce
Samba Basic
Samba Lunge
Quebradita Basic
Andale
Body Roll
Basic Calypso
Tobago
Reggae
Shimmy
+24 двух-трех минутных ролика Rhythm Refreshers - обучение движениям в танце


Качество: DVDRip
Формат: AVI
Видео кодек: DivX
General
Complete name : E:DownloadsBitTorrentZumba Fitness - Cardio Party [DVDRIP XVID]Cardio Party.avi
Format : AVI
Format/Info : Audio Video Interleave
File size : 577 MiB
Duration : 48mn 24s
Overall bit rate : 1 666 Kbps
Video
Format : MPEG-4 Visual
Format profile : Streaming Video@L1
Format settings, BVOP : Yes
Format settings, QPel : No
Format settings, GMC : No warppoints
Format settings, Matrix : Default
Codec ID : XVID
Codec ID/Hint : XviD
Duration : 48mn 24s
Bit rate : 1 528 Kbps
Width : 640 pixels
Height : 480 pixels
Display aspect ratio : 4/3
Frame rate : 25.000 fps
Resolution : 24 bits
Colorimetry : 4:2:0
Scan type : Progressive
Bits/(Pixel*Frame) : 0.199
Stream size : 529 MiB (92%)
Writing library : XviD 1.1.2 (UTC 2006-11-01)
Audio
Format : MPEG Audio
Format version : Version 1
Format profile : Layer 3
Codec ID : 55
Codec ID/Hint : MP3
Bit rate mode : Constant
Bit rate : 128 Kbps
Channel(s) : 2 channels
Sampling rate : 48.0 KHz
Resolution : 16 bits
Stream size : 44.3 MiB (8%)
Alignment : Split accross interleaves
Interleave, duration : 40 ms (1.00 video frame)
Writing library : LAME3.97









   Похожие торренты   Торрент   Размер 
В этой теме нет новых непрочитанных сообщений. Фитнес - Звезды фитнеса. Кардио аэробика (2005) DVDRip

149 | 15

700.47 МБ

В этой теме нет новых непрочитанных сообщений. ENVY: фитнес-класс / ENVY: Fitness-class (2005) DVDRip

76 | 42

500.39 МБ

В этой теме нет новых непрочитанных сообщений. Фитнес - Клубные танцы. Россия (2010) SATRip

96 | 27

3.14 ГБ

В этой теме нет новых непрочитанных сообщений. Various Artists - Zumba Hits (2009) Mp3

59 | 5

323.34 МБ

В этой теме нет новых непрочитанных сообщений. VA - Fitness Dance Party 2 (2 CD) (2014) MP3

128 | 7

366.72 МБ

В этой теме нет новых непрочитанных сообщений. VA - Ibiza Workout 30 Fitness Hits Party (2016) MP3

4 | 0

313.21 МБ

В этой теме нет новых непрочитанных сообщений. Фитнес - Фитнес от Энви / Envy (2007) DVDRip

49 | 12

1.47 ГБ




Вы не можете начинать темы
Вы не можете отвечать на сообщения
Вы не можете редактировать свои сообщения
Вы не можете удалять свои сообщения
Вы не можете добавлять вложения

Перейти:  
Для Мосгорсуда, Роскомнадзора и рекламодателей: mosgorsud-torrent[собачка]yandex.ru
 Вход
ppkBB3cker v.2 © 2008-2014 @ PPK
[ Time : 0.023s | 15 Queries | GZIP : Off ]

Торрент трекер RUTOR.IN, Не можете зайти на rutor.org? Какой новый адрес рутор? Какое зеркало рутор? Не работает rutor.org и зеркала? Тогда наш торрент специально для вас. Rutor.in неофициальное зеркало rutor. В случае если у Вас заблокирован rutor или вдруг Вы не можете на него зайти, то Вы без труда сможете скачать бесплатно и без рекламы последние новинки кино, игр, сериалов и прочего у нас, на Rutor.in. Не нужно использовать прокси, чтобы зайти на рутор, достаточно воспользоваться нашим ресурсом. Все новые фильмы, игры, сериалы, книги и музыка за 2013 и 2014 годы через торрент бесплатно. Скачивайте фильмы в хорошем качестве, игры для пк, xbox, playstation без регистрации. У нас вы найдете новые Зарубежные сериалы и Русские сериалы 2013, 2014, 2015 годов. Оставайтесь с нами, качайте любимые фильмы, игры, сериалы, книги и музыку.
cron