img image001 image001 image001 image001 image001 image001 image001 image001 image001 image001 image001 image001 image001 image001 image001

Planets Sun Sun Sun
Статистика раздачи
Автор: Снежана | Размер: 877.18 МБ | Добавлен: 05 авг 2013
Раздают: 13    Качают: 8
Скачать торрент
Скачать торрент
Описание торрента

СообщениеДобавлено: 05 авг 2013 

#77

Название: Диафильмы
Жанр: Диафильмы
Страна: СССР
Перевод: Не требуется

Файл
Кодек: WMV
Качество: Разное

Видео:
Видеоданные1:
Format : VC-1
Format profile : MP@HL
Codec ID : WMV3
Codec ID/Info : Windows Media Video 9
Codec ID/Hint : WMV3
Deion of the codec : Windows Media Video 9 - Professional
Duration : 2mn 27s
Bit rate mode : Constant
Bit rate : 4 200 Kbps
Width : 1 920 pixels
Height : 1 080 pixels
Display aspect ratio : 16:9
Frame rate : 7.000 fps
Bit depth : 8 bits
Scan type : Progressive
Bits/(Pixel*Frame) : 0.289
Stream size : 74.0 MiB (95%)
Language : Russian

Видеоданные2:
Format : VC-1
Format profile : MP@ML
Codec ID : WMV3
Codec ID/Info : Windows Media Video 9
Codec ID/Hint : WMV3
Deion of the codec : Windows Media Video 9
Duration : 6mn 13s
Bit rate mode : Constant
Bit rate : 190 Kbps
Width : 640 pixels
Height : 480 pixels
Display aspect ratio : 4:3
Frame rate : 15.000 fps
Bit depth : 8 bits
Scan type : Progressive
Bits/(Pixel*Frame) : 0.041
Stream size : 8.46 MiB (72%)
Language : Russian


Звук:
Аудиоданные1:
Format : WMA
Format version : Version 2
Codec ID : 161
Codec ID/Info : Windows Media Audio
Deion of the codec : Windows Media Audio 9.2 - 160 kbps, 48 kHz, stereo (A/V) 1-pass CBR
Duration : 2mn 27s
Bit rate mode : Constant
Bit rate : 160 Kbps
Channel(s) : 2 channels
Sampling rate : 48.0 KHz
Bit depth : 16 bits
Stream size : 2.82 MiB (4%)
Language : Russian

Аудиоданные2:
Format : WMA
Format version : Version 2
Codec ID : 161
Codec ID/Info : Windows Media Audio
Deion of the codec : Windows Media Audio 9.2 - 64 kbps, 44 kHz, stereo (A/V) 1-pass CBR
Duration : 6mn 13s
Bit rate mode : Constant
Bit rate : 64.0 Kbps
Channel(s) : 2 channels
Sampling rate : 44.1 KHz
Bit depth : 16 bits
Stream size : 2.85 MiB (24%)
Language : Russian


Список диафильмов:
1.Гость
2.Крапивная горка
3.Про лису Лариску и зайца Коську
4.Два жадных медвежонка
5.Кот-серый лоб, козел да баран
6.Принцесса на горошине
7.Акула
8.Бабушка метелица
9.Чеграш
10.Филипок
11.Как Мишук шел по следу
12.Косточка
13.Котенок
14.Красная шапочка
15.Лисичка-сестричка и серый волк
16.Маша и медведь
17.Морозко
18.Приключения Мак-Леггана
19.Репка
20.Три медведя
21.Дядя Степа-милиционер


Список видеокниг:
1.Что такое хорошо
2.Слон
3.Зайка








   Похожие торренты   Торрент   Размер 
В этой теме нет новых непрочитанных сообщений. Диафильмы со звуком 2 / Audio Diafilms 2 [18 шт] () DVDRip

10 | 5

1.92 ГБ

В этой теме нет новых непрочитанных сообщений. Советские диафильмы [157 шт] (1949-1991) JPG

109 | 3

1.58 ГБ

В этой теме нет новых непрочитанных сообщений. Советские диафильмы [98 выпусков] (1949-1988) JPG

15 | 7

691.44 МБ

В этой теме нет новых непрочитанных сообщений. Диафильмы для детей. Коллекция (1951-1988) JPEG

57 | 7

47.84 МБ

В этой теме нет новых непрочитанных сообщений. AVS Audio Converter 7.0.6.519 / AVS Audio Editor 7.1.6.484 (2013) PC

61 | 5

81.24 МБ

В этой теме нет новых непрочитанных сообщений. Movavi Video Suite v15.4.0 RePack by KpoJIuK v15.4.0 RePack [2016, Конвертор,Работа со звуком,Редактор видео]

180 | 3

136.27 МБ

В этой теме нет новых непрочитанных сообщений. Audio Bullys - Only Man [клип] (2010) DVDRip

0 | 2

49.07 МБ




Вы не можете начинать темы
Вы не можете отвечать на сообщения
Вы не можете редактировать свои сообщения
Вы не можете удалять свои сообщения
Вы не можете добавлять вложения

Перейти:  
Для Мосгорсуда, Роскомнадзора и рекламодателей: mosgorsud-torrent[собачка]yandex.ru
 Вход
ppkBB3cker v.2 © 2008-2014 @ PPK
[ Time : 0.030s | 15 Queries | GZIP : Off ]

cron