img image001 image001 image001 image001 image001 image001 image001 image001 image001 image001 image001 image001 image001 image001 image001

Planets Sun Sun Sun
Статистика раздачи
Автор: Снежана | Размер: 2.1 ГБ | Добавлен: 05 авг 2013
Раздают: 17    Качают: 5
Скачать торрент
Скачать торрент
Описание торрента

СообщениеДобавлено: 05 авг 2013 

#77
Название: Любовь, секс и супружеские отношения
Жанр: семья, взаимоотношения, психология, проповеди, лекции, семинары, религия, христианство
Ведет семинар: Чип Ингрэм
Год выхода: 2006
Продолжительность 5:00:06
Язык: русский
Русские субтитры: нет

Описание: В феврале 2006 года вышел новый видеосеминар и книга «Любовь, секс и супружеские отношения».

В этом видеокурсе, состоящем из 10 занятий, Чип Ингрэм поможет вам раскрыть секрет продолжительных отношений. Вы узнаете, как отличить любовь от увлечения, и почему ваша сексуальность так важна для Бога. Холосты вы или женаты, счастливы или только ищете свою любовь, «Любовь, секс и супружеские отношения» укажет вам путь к обилию Божьих благословений для супружеской жизни.

Эта серия занятий будет полезна не только для тех, кто живет в браке, но и для тех, у кого еще никого нет, кто только ищет свою половину, для тех, кто только начал встречаться или уже встречается с любимым человеком продолжительное время, для тех, кто разведен или овдовел. Этот курс занятий поможет каждому, кто хочет любить и быть любимым.

Откройте секрет прочной любви! “Есть лучший способ найти любовь и сохранить её, с каждым днём становясь всё ближе друг к другу” – говорит Чип Ингрэм. Это Божий путь. С надеждой и уверенностью Чип обьясняет, каким образом следование Божьим указаниям ведет к прочной любви. Любви, приносящей радость и наслаждение. Любовь, секс и супружеские отношения.

Об авторе:
Чип Ингрэм – является президентом и исполнительным директором служения “Путешествие по Библии”.
Содержание:
1. Голливудская форма любовных отношений.
2. Две модели отношений
3. Прежде, чем влюбиться
4. Как узнать любовь ли это
5. Любовь и секс: как важно знать разницу
6. Разница между любовью и сексом.
7. Сексуальная чистота в развращенном мире.
8. Как говорить “да” любви и “нет” второсортному сексу
9. “Проснись мир!”,или надежный путь к хорошим отношениям.
10. Вторая сексуальная революция.

Формат : AVI
Формат/Информация : Audio Video Interleave
Размер файла : 276 Мбайт
Продолжительность : 32 м.
Общий поток : 1195 Кбит/сек
Программа кодирования : VirtualDubMod 1.5.4.1 (build 2178/release)
Библиотека кодирования : VirtualDubMod build 2178/release

Видео
Идентификатор : 0
Формат : MPEG-4 Visual
Профиль формата : Advanced Simple@L5
Параметр BVOP формата : 1
Параметр QPel формата : Нет
Параметр GMC формата : Без точки перехода
Параметр матрицы формата : Выборочная
Идентификатор кодека : XVID
Идентификатор кодека/Подсказка : XviD
Продолжительность : 32 м.
Битрейт : 1077 Кбит/сек
Ширина : 576 пикс.
Высота : 432 пикс.
Соотношение сторон : 4:3
Частота кадров : 25,000 кадр/сек
Цветовое пространство : YUV
Подвыборка цветности : 4:2:0
Битовая глубина : 8 бит
Тип развёртки : Прогрессивная
Метод сжатия : С потерями
Бит/(Пиксели*Кадры) : 0.173
Размер потока : 249 Мбайт (90%)
Библиотека кодирования : XviD 1.1.2 (UTC 2006-11-01)

Аудио
Идентификатор : 1
Формат : MPEG Audio
Версия формата : Version 1
Профиль формата : Layer 3
Режим : Joint stereo
Расширение режима : MS Stereo
Идентификатор кодека : 55
Идентификатор кодека/Подсказка : MP3
Продолжительность : 32 м.
Вид битрейта : Переменный
Битрейт : 105 Кбит/сек
Номинальный битрейт : 128 Кбит/сек
Канал(ы) : 2 канала(ов)
Частота : 48,0 КГц
Метод сжатия : С потерями
Размер потока : 24,3 Мбайт (9%)
Выравнивание : Соединение по промежуткам
Продолжительность промежутка : 24 мс. (0,60 видеокадр)
Время предзагрузки промежутка : 175 ms
Библиотека кодирования : LAME3.97
Настройки программы : -m j -V 4 -q 2 -lowpass 17 --abr 128


Файл
Формат: AVI
Качество: DVDRip
Видео: 576x432, XviD, ~1077 kbps
Звук: MP3, 48,0 КГц, 128 kbps





   Похожие торренты   Торрент   Размер 
В этой теме нет новых непрочитанных сообщений. Лучшие отношения, лучший секс / Секреты современного секса / Better relationships, Better sex (2006) DVDRip | P2

1224 | 93

758.69 МБ

В этой теме нет новых непрочитанных сообщений. Любовь и секс / Love & Sex (2000) DVDRip-AVC | P

23 | 0

2.35 ГБ

В этой теме нет новых непрочитанных сообщений. Секс, любовь и черная магия (2004) DVDRip

31 | 5

699.61 МБ

В этой теме нет новых непрочитанных сообщений. Любовь, секс и химия / Любовь по рецепту и без / Better Living Through Chemistry (2014) HDRip от ImperiaFilm | КПК | D

83 | 8

313.53 МБ

В этой теме нет новых непрочитанных сообщений. Любовь по рецепту и без / Любовь, секс и химия / Better Living Through Chemistry (2014) BDRip 720p от NovaLan

176 | 21

4.65 ГБ

В этой теме нет новых непрочитанных сообщений. Любовь, секс и химия / Любовь по рецепту и без / Better Living Through Chemistry (2014) BDRip-AVC от New-Team | D | Лицензия

628 | 51

2.19 ГБ

В этой теме нет новых непрочитанных сообщений. Любовь по рецепту и без / Любовь, секс и химия / Better Living Through Chemistry (2014) HDRip от Scarabey | Лицензия

275 | 30

744.09 МБ




Вы не можете начинать темы
Вы не можете отвечать на сообщения
Вы не можете редактировать свои сообщения
Вы не можете удалять свои сообщения
Вы не можете добавлять вложения

Перейти:  
Для Мосгорсуда, Роскомнадзора и рекламодателей: mosgorsud-torrent[собачка]yandex.ru
 Вход
ppkBB3cker v.2 © 2008-2014 @ PPK
[ Time : 0.097s | 14 Queries | GZIP : Off ]

Торрент трекер RUTOR.IN, Не можете зайти на rutor.org? Какой новый адрес рутор? Какое зеркало рутор? Не работает rutor.org и зеркала? Тогда наш торрент специально для вас. Rutor.in неофициальное зеркало rutor. В случае если у Вас заблокирован rutor или вдруг Вы не можете на него зайти, то Вы без труда сможете скачать бесплатно и без рекламы последние новинки кино, игр, сериалов и прочего у нас, на Rutor.in. Не нужно использовать прокси, чтобы зайти на рутор, достаточно воспользоваться нашим ресурсом. Все новые фильмы, игры, сериалы, книги и музыка за 2013 и 2014 годы через торрент бесплатно. Скачивайте фильмы в хорошем качестве, игры для пк, xbox, playstation без регистрации. У нас вы найдете новые Зарубежные сериалы и Русские сериалы 2013, 2014, 2015 годов. Оставайтесь с нами, качайте любимые фильмы, игры, сериалы, книги и музыку.