img image001 image001 image001 image001 image001 image001 image001 image001 image001 image001 image001 image001 image001 image001 image001

Planets Sun Sun Sun
Статистика раздачи
Автор: Снежана | Размер: 2.56 ГБ | Добавлен: 05 авг 2013
Раздают: 0    Качают: 2
Скачать торрент
Скачать торрент
Описание торрента

СообщениеДобавлено: 05 авг 2013 

#77

Информация о фильме
Название: Как человек бросал курить
Год выпуска: 2011
Жанр: Документальный
Режиссер: Сергей Андрюшкин

О фильме: В наше время существует огромное количество "чудодейственных" способов бросить курить. Герой фильма пробует их один за другим, но покончить с пагубной привычкой не дает отсутствие истинной мотивации, которую не может предложить ни одна западная методика... .

Выпущено: Россия
Продолжительность: 00:45:55
Язык: Русский

Файл:
Общее
Полное имя : G: .....Kak.chelovek.brosal.kurit.2011.DVD-5VIDEO_TSVTS_02_1.VOB
Формат : MPEG-PS
Размер файла : 1024 Мбайт
Продолжительность : 19 м.
Общий поток : 7285 Кбит/сек

Видео
Идентификатор : 224 (0xE0)
Формат : MPEG Video
Версия формата : Version 2
Профиль формата : Main@Main
Параметр BVOP формата : Да
Параметр матрицы формата : По умолчанию
Параметры GOP формата : M=3, N=12
Продолжительность : 19 м.
Вид битрейта : Переменный
Битрейт : 6948 Кбит/сек
Номинальный битрейт : 9440 Кбит/сек
Ширина : 720 пикс.
Высота : 576 пикс.
Соотношение сторон : 4:3
Частота кадров : 25,000 кадр/сек
Стандарт вещания : PAL
Цветовое пространство : YUV
Подвыборка цветности : 4:2:0
Битовая глубина : 8 бит
Тип развёртки : Чересстрочная
Порядок развёртки : Нижнее поле первое
Метод сжатия : С потерями
Бит/(Пиксели*Кадры) : 0.670
Размер потока : 977 Мбайт (95%)

Аудио
Идентификатор : 189 (0xBD)-128 (0x80)
Формат : AC-3
Формат/Информация : Audio Coding 3
Расширение режима : CM (complete main)
Режим смешивания : DVD-Video
Продолжительность : 19 м.
Вид битрейта : Постоянный
Битрейт : 192 Кбит/сек
Каналы : 2 канала
Расположение каналов : Front: L R
Частота : 48,0 КГц
Битовая глубина : 16 бит
Метод сжатия : С потерями
Задержка видео : -80 мс.
Размер потока : 27,0 Мбайт (3%)

Меню


Качество: DVD5
Формат: DVD видео
Видео: PAL 4:3 (720x576@768x576) VBR
Аудио: (Dolby AC3, 2 ch)



   Похожие торренты   Торрент   Размер 
В этой теме нет новых непрочитанных сообщений. Как человек бросал курить (2011) DVDRip от Files-x

3 | 2

857.53 МБ

В этой теме нет новых непрочитанных сообщений. Аллен Карр - Легкий способ бросить курить + Фильмы об алкоголе (2009) DVD5

17 | 3

4.15 ГБ

В этой теме нет новых непрочитанных сообщений. Курить / Не курить / Smoking / No Smoking (1993) DVDRip от Alekxandr48

1 | 0

2.74 ГБ

В этой теме нет новых непрочитанных сообщений. Бросить курить (2011) SATRip

0 | 2

525.78 МБ

В этой теме нет новых непрочитанных сообщений. Лазарев С.Н. - Диагностика Кармы, Человек будущего - Мега-Сборник в 14 частях [25 DVD5] (1994-2008) DVD5

227 | 271

102.39 ГБ

В этой теме нет новых непрочитанных сообщений. С.Н. Зайцев - Как бросить курить за 3 дня (2008) MP3

15 | 5

175.21 МБ

В этой теме нет новых непрочитанных сообщений. Человек ниоткуда (2010) DVD5

4 | 3

3.03 ГБ




Вы не можете начинать темы
Вы не можете отвечать на сообщения
Вы не можете редактировать свои сообщения
Вы не можете удалять свои сообщения
Вы не можете добавлять вложения

Перейти:  
Для Мосгорсуда, Роскомнадзора и рекламодателей: mosgorsud-torrent[собачка]yandex.ru
 Вход
ppkBB3cker v.2 © 2008-2014 @ PPK
[ Time : 0.039s | 14 Queries | GZIP : Off ]

Торрент трекер RUTOR.IN, Не можете зайти на rutor.org? Какой новый адрес рутор? Какое зеркало рутор? Не работает rutor.org и зеркала? Тогда наш торрент специально для вас. Rutor.in неофициальное зеркало rutor. В случае если у Вас заблокирован rutor или вдруг Вы не можете на него зайти, то Вы без труда сможете скачать бесплатно и без рекламы последние новинки кино, игр, сериалов и прочего у нас, на Rutor.in. Не нужно использовать прокси, чтобы зайти на рутор, достаточно воспользоваться нашим ресурсом. Все новые фильмы, игры, сериалы, книги и музыка за 2013 и 2014 годы через торрент бесплатно. Скачивайте фильмы в хорошем качестве, игры для пк, xbox, playstation без регистрации. У нас вы найдете новые Зарубежные сериалы и Русские сериалы 2013, 2014, 2015 годов. Оставайтесь с нами, качайте любимые фильмы, игры, сериалы, книги и музыку.